<?xml version="1.0" standalone="no"?>
<!DOCTYPE svg PUBLIC "-//W3C//DTD SVG 1.1//EN" "http://www.w3.org/Graphics/SVG/1.1/DTD/svg11.dtd" >
<svg xmlns="http://www.w3.org/2000/svg">
<defs>
<font id="Bootstrap-Icons" horiz-adv-x="1024">
<font-face units-per-em="1024" ascent="960" descent="-64" />
<missing-glyph horiz-adv-x="1024" />
<glyph unicode="&#x20;" horiz-adv-x="512" d="" />
<glyph unicode="&#xe900;" glyph-name="alarm" data-tags="alarm" d="M416 960c-17.673 0-32-14.327-32-32s14.327-32 32-32v0h32v-68.48c-218.364-32.434-383.996-218.604-383.996-443.46 0-144.007 67.936-272.146 173.508-354.117l1.016-0.759-38.528-38.528c-5.804-5.796-9.394-13.807-9.394-22.656 0-17.683 14.335-32.018 32.018-32.018 8.834 0 16.832 3.577 22.624 9.362v0l47.744 47.744c62.847-35.913 138.121-57.088 218.341-57.088 0.234 0 0.469 0 0.703 0.001h-0.036c0.198 0 0.432 0 0.667 0 80.22 0 155.495 21.175 220.539 58.241l-2.197-1.153 47.744-47.744c5.792-5.785 13.79-9.362 22.624-9.362 17.683 0 32.018 14.335 32.018 32.018 0 8.849-3.59 16.86-9.393 22.656v0l-38.464 38.528c106.582 82.73 174.514 210.866 174.514 354.868 0 224.874-165.659 411.057-381.598 443.168l-2.451 0.299v68.48h32c17.673 0 32 14.327 32 32s-14.327 32-32 32v0h-192zM482.432 766.848c8.851 0.715 19.162 1.123 29.568 1.123s20.717-0.408 30.917-1.208l-1.349 0.085c198.967-15.828 354.432-181.189 354.432-382.86 0-212.077-171.923-384-384-384s-384 171.923-384 384c0 201.671 155.464 367.031 353.086 382.774l1.346 0.086zM544 608v-223.999c0-0.004 0-0.008 0-0.012 0-6.069-1.69-11.744-4.544-16.437l-96.080-160.142c-5.618-9.234-15.777-15.401-27.376-15.401-17.685 0-32.022 14.337-32.022 32.022 0 6.086 1.698 11.776 4.566 16.48l91.456 152.32v215.168c0 17.673 14.327 32 32 32s32-14.327 32-32zM0 736v0c0 0.003 0 0.005 0 0.008 0 88.366 71.634 160 160 160 48.118 0 91.275-21.241 120.768-55.047l-2.874-1.35c-94.856-48.997-172.507-126.648-222.854-224.378-33.728 29.312-55.040 72.576-55.040 120.768zM864 896v0c0.003 0 0.005 0 0.008 0 88.366 0 160-71.634 160-160 0-48.118-21.241-91.275-55.047-120.768l-1.35 2.874c-48.997 94.856-126.648 172.507-224.378 222.854 29.312 33.728 72.576 55.040 120.768 55.040z" />
<glyph unicode="&#xe901;" glyph-name="alarm-fill" data-tags="alarm-fill" d="M384 928c0 17.673 14.327 32 32 32v0h192c17.673 0 32-14.327 32-32s-14.327-32-32-32v0h-32v-68.48c218.39-32.411 384.050-218.593 384.050-443.468 0-144.002-67.932-272.138-173.498-354.11l-1.016-0.759 38.464-38.528c5.804-5.796 9.394-13.807 9.394-22.656 0-17.683-14.335-32.018-32.018-32.018-8.834 0-16.832 3.577-22.624 9.362v0l-47.744 47.744c-62.847-35.913-138.121-57.088-218.341-57.088-0.234 0-0.469 0-0.703 0.001h0.036c-0.198 0-0.432 0-0.667 0-80.22 0-155.495 21.175-220.539 58.241l2.197-1.153-47.744-47.744c-5.792-5.785-13.79-9.362-22.624-9.362-17.683 0-32.018 14.335-32.018 32.018 0 8.849 3.59 16.86 9.393 22.656v0l38.528 38.528c-106.588 82.73-174.524 210.869-174.524 354.876 0 224.855 165.631 411.026 381.544 443.16l2.452 0.3v68.48h-32c-17.673 0-32 14.327-32 32v0zM55.040 615.232l1.35 2.874c48.997 94.856 126.648 172.507 224.378 222.854l-0.161 0.188c-29.33 33.586-72.467 54.804-120.559 54.804-88.366 0-160-71.634-160-160 0-48.092 21.218-91.229 54.992-120.72zM743.232 840.96l2.874-1.35c94.856-48.997 172.507-126.648 222.854-224.378l0.188 0.161c33.586 29.33 54.804 72.467 54.804 120.559 0 88.366-71.634 160-160 160-48.092 0-91.229-21.218-120.72-54.992zM544 608c0 17.673-14.327 32-32 32s-32-14.327-32-32v0-215.168l-91.456-152.32c-2.868-4.704-4.566-10.394-4.566-16.48 0-17.685 14.337-32.022 32.022-32.022 11.599 0 21.758 6.167 27.376 15.401l0.080 0.142 96 160c2.854 4.693 4.544 10.368 4.544 16.437 0 0.004 0 0.008 0 0.012v-0.001 224z" />
<glyph unicode="&#xe902;" glyph-name="align-bottom" data-tags="align-bottom" d="M384 832c0 35.346 28.654 64 64 64v0h128c35.346 0 64-28.654 64-64v0-640c0-35.346-28.654-64-64-64v0h-128c-35.346 0-64 28.654-64 64v0 640zM64 32c0 17.673 14.327 32 32 32v0h832c17.673 0 32-14.327 32-32s-14.327-32-32-32v0h-832c-17.673 0-32 14.327-32 32v0z" />
<glyph unicode="&#xe903;" glyph-name="align-center" data-tags="align-center" d="M512 896c17.673 0 32-14.327 32-32v0-288h-64v288c0 17.673 14.327 32 32 32v0zM512 0c-17.673 0-32 14.327-32 32v0 288h64v-288c0-17.673-14.327-32-32-32v0zM128 512c0 35.346 28.654 64 64 64v0h640c35.346 0 64-28.654 64-64v0-128c0-35.346-28.654-64-64-64v0h-640c-35.346 0-64 28.654-64 64v0 128z" />
<glyph unicode="&#xe904;" glyph-name="align-end" data-tags="align-end" d="M928 896c-17.673 0-32-14.327-32-32v0-832c0-17.673 14.327-32 32-32s32 14.327 32 32v0 832c0 17.673-14.327 32-32 32v0zM832 512c0 35.346-28.654 64-64 64v0h-640c-35.346 0-64-28.654-64-64v0-128c0-35.346 28.654-64 64-64v0h640c35.346 0 64 28.654 64 64v0 128z" />
<glyph unicode="&#xe905;" glyph-name="align-middle" data-tags="align-middle" d="M384 128c0-35.346 28.654-64 64-64v0h128c35.346 0 64 28.654 64 64v0 640c0 35.346-28.654 64-64 64v0h-128c-35.346 0-64-28.654-64-64v0-640zM64 448c0-17.673 14.327-32 32-32v0h288v64h-288c-17.673 0-32-14.327-32-32v0zM960 448c0-17.673-14.327-32-32-32v0h-288v64h288c17.673 0 32-14.327 32-32v0z" />
<glyph unicode="&#xe906;" glyph-name="align-start" data-tags="align-start" d="M96 896c17.673 0 32-14.327 32-32v0-832c0-17.673-14.327-32-32-32s-32 14.327-32 32v0 832c0 17.673 14.327 32 32 32v0zM192 512c0 35.346 28.654 64 64 64v0h640c35.346 0 64-28.654 64-64v0-128c0-35.346-28.654-64-64-64v0h-640c-35.346 0-64 28.654-64 64v0 128z" />
<glyph unicode="&#xe907;" glyph-name="align-top" data-tags="align-top" d="M384 64c0-35.346 28.654-64 64-64v0h128c35.346 0 64 28.654 64 64v0 640c0 35.346-28.654 64-64 64v0h-128c-35.346 0-64-28.654-64-64v0-640zM64 864c0-17.673 14.327-32 32-32v0h832c17.673 0 32 14.327 32 32s-14.327 32-32 32v0h-832c-17.673 0-32-14.327-32-32v0z" />
<glyph unicode="&#xe908;" glyph-name="alt" data-tags="alt" d="M64 96v0c0 17.673 14.327 32 32 32h224l336.979 687.523c5.462 9.827 15.949 16.477 27.989 16.477 0.008 0 0.016 0 0.023 0h243.008c17.673 0 32-14.327 32-32s-14.327-32-32-32h-224l-336.979-687.523c-5.462-9.827-15.949-16.477-27.989-16.477-0.008 0-0.016 0-0.023 0h-243.008c-17.673 0-32 14.327-32 32zM704 96v0c0 17.673 14.327 32 32 32h192c17.673 0 32-14.327 32-32s-14.327-32-32-32h-192c-17.673 0-32 14.327-32 32z" />
<glyph unicode="&#xe909;" glyph-name="app" data-tags="app" d="M704 832v0c106.039 0 192-85.961 192-192v-384c0-106.039-85.961-192-192-192h-384c-106.039 0-192 85.961-192 192v384c0 106.039 85.961 192 192 192h384zM320 896c-141.385 0-256-114.615-256-256v0-384c0-141.385 114.615-256 256-256v0h384c141.385 0 256 114.615 256 256v0 384c0 141.385-114.615 256-256 256v0h-384z" />
<glyph unicode="&#xe90a;" glyph-name="app-indicator" data-tags="app-indicator" d="M352 832c-123.712 0-224-100.288-224-224v0-320c0-123.712 100.288-224 224-224v0h320c123.712 0 224 100.288 224 224v0 160c0 17.673 14.327 32 32 32s32-14.327 32-32v0-160c0-159.058-128.942-288-288-288v0h-320c-159.058 0-288 128.942-288 288v0 320c0 159.058 128.942 288 288 288v0h160c17.673 0 32-14.327 32-32s-14.327-32-32-32v0h-160zM1024 768c0-106.039-85.961-192-192-192s-192 85.961-192 192v0c0 106.039 85.961 192 192 192s192-85.961 192-192v0z" />
<glyph unicode="&#xe90b;" glyph-name="archive" data-tags="archive" d="M0 832c0 35.346 28.654 64 64 64v0h896c35.346 0 64-28.654 64-64v0-128c0-35.346-28.654-64-64-64v0-480c0-88.366-71.634-160-160-160v0h-576c-88.366 0-160 71.634-160 160v0 480c-35.346 0-64 28.654-64 64v0 128zM128 640v-480c0-53.019 42.981-96 96-96v0h576c53.019 0 96 42.981 96 96v0 480h-768zM960 832h-896v-128h896v128zM320 480v0c0-17.673 14.327-32 32-32h320c17.673 0 32 14.327 32 32s-14.327 32-32 32h-320c-17.673 0-32-14.327-32-32z" />
<glyph unicode="&#xe90c;" glyph-name="archive-fill" data-tags="archive-fill" d="M809.152 0h-594.304c-85.504 0-150.848 73.92-150.848 160v480h896v-480c0-86.080-65.344-160-150.848-160zM352 512c-17.673 0-32-14.327-32-32s14.327-32 32-32v0h320c17.673 0 32 14.327 32 32s-14.327 32-32 32v0h-320zM51.2 896h921.6c28.277 0 51.2-22.923 51.2-51.2v-76.8c0-28.277-22.923-51.2-51.2-51.2h-921.6c-28.277 0-51.2 22.923-51.2 51.2v76.8c0 28.277 22.923 51.2 51.2 51.2z" />
<glyph unicode="&#xe90d;" glyph-name="arrow-90deg-down" data-tags="arrow-90deg-down" d="M310.656 9.344c-5.794-5.808-13.805-9.401-22.656-9.401s-16.862 3.593-22.655 9.401l-256.001 256.001c-5.798 5.798-9.384 13.808-9.384 22.656 0 17.695 14.345 32.040 32.040 32.040 8.848 0 16.858-3.586 22.656-9.384l201.344-201.408v626.752c0 88.366 71.634 160 160 160v0h512c17.673 0 32-14.327 32-32s-14.327-32-32-32v0h-512c-53.019 0-96-42.981-96-96v0-626.752l201.344 201.408c5.798 5.798 13.808 9.384 22.656 9.384 17.695 0 32.040-14.345 32.040-32.040 0-8.848-3.586-16.858-9.384-22.656v0l-256-256z" />
<glyph unicode="&#xe90e;" glyph-name="arrow-90deg-left" data-tags="arrow-90deg-left" d="M73.344 649.344c-5.808 5.794-9.401 13.805-9.401 22.656s3.593 16.862 9.401 22.655l256.001 256.001c5.798 5.798 13.808 9.384 22.656 9.384 17.695 0 32.040-14.345 32.040-32.040 0-8.848-3.586-16.858-9.384-22.656l-201.408-201.344h626.752c88.366 0 160-71.634 160-160v0-512c0-17.673-14.327-32-32-32s-32 14.327-32 32v0 512c0 53.019-42.981 96-96 96v0h-626.752l201.408-201.344c5.798-5.798 9.384-13.808 9.384-22.656 0-17.695-14.345-32.040-32.040-32.040-8.848 0-16.858 3.586-22.656 9.384v0l-256 256z" />
<glyph unicode="&#xe90f;" glyph-name="arrow-90deg-right" data-tags="arrow-90deg-right" d="M950.656 649.344c5.808 5.794 9.401 13.805 9.401 22.656s-3.593 16.862-9.401 22.655l-256.001 256.001c-5.798 5.798-13.808 9.384-22.656 9.384-17.695 0-32.040-14.345-32.040-32.040 0-8.848 3.586-16.858 9.384-22.656l201.408-201.344h-626.752c-88.366 0-160-71.634-160-160v0-512c0-17.673 14.327-32 32-32s32 14.327 32 32v0 512c0 53.019 42.981 96 96 96v0h626.752l-201.408-201.344c-5.798-5.798-9.384-13.808-9.384-22.656 0-17.695 14.345-32.040 32.040-32.040 8.848 0 16.858 3.586 22.656 9.384v0l256 256z" />
<glyph unicode="&#xe910;" glyph-name="arrow-90deg-up" data-tags="arrow-90deg-up" d="M310.656 886.656c-5.794 5.808-13.805 9.401-22.656 9.401s-16.862-3.593-22.655-9.401l-256.001-256.001c-5.798-5.798-9.384-13.808-9.384-22.656 0-17.695 14.345-32.040 32.040-32.040 8.848 0 16.858 3.586 22.656 9.384l201.344 201.408v-626.752c0-88.366 71.634-160 160-160v0h512c17.673 0 32 14.327 32 32s-14.327 32-32 32v0h-512c-53.019 0-96 42.981-96 96v0 626.752l201.344-201.408c5.798-5.798 13.808-9.384 22.656-9.384 17.695 0 32.040 14.345 32.040 32.040 0 8.848-3.586 16.858-9.384 22.656v0l-256 256z" />
<glyph unicode="&#xe911;" glyph-name="arrow-bar-down" data-tags="arrow-bar-down" d="M64 736v0c0-17.673 14.327-32 32-32h832c17.673 0 32 14.327 32 32s-14.327 32-32 32h-832c-17.673 0-32-14.327-32-32zM512 576v0c-17.673 0-32-14.327-32-32v-370.752l-137.344 137.408c-5.798 5.798-13.808 9.384-22.656 9.384-17.695 0-32.040-14.345-32.040-32.040 0-8.848 3.586-16.858 9.384-22.656l192.001-192.001c5.793-5.807 13.805-9.401 22.655-9.401s16.862 3.593 22.656 9.401l192 192c5.798 5.798 9.384 13.808 9.384 22.656 0 17.695-14.345 32.040-32.040 32.040-8.848 0-16.858-3.586-22.656-9.384l-137.344-137.408v370.752c0 17.673-14.327 32-32 32z" />
<glyph unicode="&#xe912;" glyph-name="arrow-bar-left" data-tags="arrow-bar-left" d="M800 0v0c17.673 0 32 14.327 32 32v832c0 17.673-14.327 32-32 32s-32-14.327-32-32v-832c0-17.673 14.327-32 32-32zM640 448v0c0 17.673-14.327 32-32 32h-370.752l137.408 137.344c5.798 5.798 9.384 13.808 9.384 22.656 0 17.695-14.345 32.040-32.040 32.040-8.848 0-16.858-3.586-22.656-9.384l-192.001-192.001c-5.807-5.793-9.401-13.805-9.401-22.655s3.593-16.862 9.401-22.656l192-192c5.798-5.798 13.808-9.384 22.656-9.384 17.695 0 32.040 14.345 32.040 32.040 0 8.848-3.586 16.858-9.384 22.656l-137.408 137.344h370.752c17.673 0 32 14.327 32 32z" />
<glyph unicode="&#xe913;" glyph-name="arrow-bar-right" data-tags="arrow-bar-right" d="M384 448v0c0 17.673 14.327 32 32 32h370.752l-137.408 137.344c-5.798 5.798-9.384 13.808-9.384 22.656 0 17.695 14.345 32.040 32.040 32.040 8.848 0 16.858-3.586 22.656-9.384l192.001-192.001c5.807-5.793 9.401-13.805 9.401-22.655s-3.593-16.862-9.401-22.656l-192-192c-5.798-5.798-13.808-9.384-22.656-9.384-17.695 0-32.040 14.345-32.040 32.040 0 8.848 3.586 16.858 9.384 22.656l137.408 137.344h-370.752c-17.673 0-32 14.327-32 32zM224 0v0c17.673 0 32 14.327 32 32v832c0 17.673-14.327 32-32 32s-32-14.327-32-32v-832c0-17.673 14.327-32 32-32z" />
<glyph unicode="&#xe914;" glyph-name="arrow-bar-up" data-tags="arrow-bar-up" d="M512 320v0c-17.673 0-32 14.327-32 32v370.752l-137.344-137.408c-5.798-5.798-13.808-9.384-22.656-9.384-17.695 0-32.040 14.345-32.040 32.040 0 8.848 3.586 16.858 9.384 22.656l192.001 192.001c5.793 5.807 13.805 9.401 22.655 9.401s16.862-3.593 22.656-9.401l192-192c5.798-5.798 9.384-13.808 9.384-22.656 0-17.695-14.345-32.040-32.040-32.040-8.848 0-16.858 3.586-22.656 9.384l-137.344 137.408v-370.752c0-17.673-14.327-32-32-32zM64 160v0c0-17.673 14.327-32 32-32h832c17.673 0 32 14.327 32 32s-14.327 32-32 32h-832c-17.673 0-32-14.327-32-32z" />
<glyph unicode="&#xe915;" glyph-name="arrow-clockwise" data-tags="arrow-clockwise" d="M512 768c-176.678-0.070-319.877-143.312-319.877-320 0-176.731 143.269-320 320-320s320 143.269 320 320c0 48.42-10.754 94.329-30.005 135.468l0.825-1.964c-1.519 3.596-2.402 7.777-2.402 12.164 0 17.673 14.327 32 32 32 12.373 0 23.105-7.022 28.43-17.298l0.084-0.178c22.106-47.007 35.009-102.093 35.009-160.192 0-212.077-171.923-384-384-384s-384 171.923-384 384c0 212.054 171.886 383.963 383.931 384h0.003v-64zM512 674.176v251.648c0.003 8.834 7.166 15.994 16 15.994 3.907 0 7.487-1.4 10.265-3.726l-0.025 0.020 151.040-125.824c7.68-6.4 7.68-18.176 0-24.576l-151.040-125.824c-2.753-2.306-6.333-3.706-10.24-3.706-8.834 0-15.997 7.16-16 15.994v0z" />
<glyph unicode="&#xe916;" glyph-name="arrow-counterclockwise" data-tags="arrow-counterclockwise" d="M512 768c176.678-0.070 319.877-143.312 319.877-320 0-176.731-143.269-320-320-320s-320 143.269-320 320c0 48.42 10.754 94.329 30.005 135.468l-0.825-1.964c1.519 3.596 2.402 7.777 2.402 12.164 0 17.673-14.327 32-32 32-12.373 0-23.105-7.022-28.43-17.298l-0.084-0.178c-22.106-47.007-35.009-102.093-35.009-160.192 0-212.077 171.923-384 384-384s384 171.923 384 384c0 212.054-171.886 383.963-383.931 384h-0.003v-64zM512 674.176v251.648c-0.003 8.834-7.166 15.994-16 15.994-3.907 0-7.487-1.4-10.265-3.726l0.025 0.020-151.040-125.824c-3.526-2.955-5.753-7.362-5.753-12.288s2.226-9.333 5.728-12.268l0.025-0.020 151.040-125.824c2.753-2.306 6.333-3.706 10.24-3.706 8.834 0 15.997 7.16 16 15.994v0z" />
<glyph unicode="&#xe917;" glyph-name="arrow-down" data-tags="arrow-down" d="M512 896c17.673 0 32-14.327 32-32v0-754.752l201.344 201.408c5.798 5.798 13.808 9.384 22.656 9.384 17.695 0 32.040-14.345 32.040-32.040 0-8.848-3.586-16.858-9.384-22.656v0l-256-256c-5.794-5.808-13.805-9.401-22.656-9.401s-16.862 3.593-22.655 9.401l-256.001 256.001c-5.798 5.798-9.384 13.808-9.384 22.656 0 17.695 14.345 32.040 32.040 32.040 8.848 0 16.858-3.586 22.656-9.384v0l201.344-201.408v754.752c0 17.673 14.327 32 32 32v0z" />
<glyph unicode="&#xe918;" glyph-name="arrow-down-circle" data-tags="arrow-down-circle" d="M512 0v0c-247.424 0-448 200.576-448 448s200.576 448 448 448v0c247.424 0 448-200.576 448-448s-200.576-448-448-448zM512-64c282.77 0 512 229.23 512 512s-229.23 512-512 512v0c-282.77 0-512-229.23-512-512s229.23-512 512-512v0zM512 704c17.673 0 32-14.327 32-32v0-370.752l137.344 137.408c5.798 5.798 13.808 9.384 22.656 9.384 17.695 0 32.040-14.345 32.040-32.040 0-8.848-3.586-16.858-9.384-22.656v0l-192-192c-5.794-5.808-13.805-9.401-22.656-9.401s-16.862 3.593-22.655 9.401l-192.001 192.001c-5.798 5.798-9.384 13.808-9.384 22.656 0 17.695 14.345 32.040 32.040 32.040 8.848 0 16.858-3.586 22.656-9.384v0l137.344-137.408v370.752c0 17.673 14.327 32 32 32v0z" />
<glyph unicode="&#xe919;" glyph-name="arrow-down-circle-fill" data-tags="arrow-down-circle-fill" d="M1024 448c0-282.77-229.23-512-512-512s-512 229.23-512 512v0c0 282.77 229.23 512 512 512s512-229.23 512-512v0zM544 672c0 17.673-14.327 32-32 32s-32-14.327-32-32v0-370.752l-137.344 137.408c-5.798 5.798-13.808 9.384-22.656 9.384-17.695 0-32.040-14.345-32.040-32.040 0-8.848 3.586-16.858 9.384-22.656v0l192-192c5.794-5.808 13.805-9.401 22.656-9.401s16.862 3.593 22.655 9.401l192.001 192.001c5.798 5.798 9.384 13.808 9.384 22.656 0 17.695-14.345 32.040-32.040 32.040-8.848 0-16.858-3.586-22.656-9.384v0l-137.344-137.408v370.752z" />
<glyph unicode="&#xe91a;" glyph-name="arrow-down-left" data-tags="arrow-down-left" d="M128 96c0-17.673 14.327-32 32-32v0h384c17.673 0 32 14.327 32 32s-14.327 32-32 32v0h-306.752l649.408 649.344c5.798 5.798 9.384 13.808 9.384 22.656 0 17.695-14.345 32.040-32.040 32.040-8.848 0-16.858-3.586-22.656-9.384v0l-649.344-649.408v306.752c0 17.673-14.327 32-32 32s-32-14.327-32-32v0-384z" />
<glyph unicode="&#xe91b;" glyph-name="arrow-down-left-circle" data-tags="arrow-down-left-circle" d="M512 0v0c-247.424 0-448 200.576-448 448s200.576 448 448 448v0c247.424 0 448-200.576 448-448s-200.576-448-448-448zM512-64c282.77 0 512 229.23 512 512s-229.23 512-512 512v0c-282.77 0-512-229.23-512-512s229.23-512 512-512v0zM692.992 628.992c-5.791 5.789-13.789 9.369-22.624 9.369s-16.833-3.58-22.624-9.369l-262.144-262.144v177.152c0 17.673-14.327 32-32 32s-32-14.327-32-32v0-254.4c0-17.673 14.327-32 32-32v0h254.4c17.673 0 32 14.327 32 32s-14.327 32-32 32v0h-177.152l262.144 262.144c5.789 5.791 9.369 13.789 9.369 22.624s-3.58 16.833-9.369 22.624v0z" />
<glyph unicode="&#xe91c;" glyph-name="arrow-down-left-circle-fill" data-tags="arrow-down-left-circle-fill" d="M1024 448v0c0 282.77-229.23 512-512 512s-512-229.23-512-512v0c0-282.77 229.23-512 512-512s512 229.23 512 512zM647.744 628.992c5.827 6.027 13.985 9.769 23.017 9.769 17.673 0 32-14.327 32-32 0-9.032-3.742-17.19-9.76-23.009l-262.153-262.153h177.152c17.673 0 32-14.327 32-32s-14.327-32-32-32v0h-254.4c-17.673 0-32 14.327-32 32v0 254.4c0 17.673 14.327 32 32 32s32-14.327 32-32v0-177.152l262.144 262.144z" />
<glyph unicode="&#xe91d;" glyph-name="arrow-down-left-square" data-tags="arrow-down-left-square" d="M896 896v0c35.346 0 64-28.654 64-64v-768c0-35.346-28.654-64-64-64h-768c-35.346 0-64 28.654-64 64v768c0 35.346 28.654 64 64 64h768zM128 960c-70.692 0-128-57.308-128-128v0-768c0-70.692 57.308-128 128-128v0h768c70.692 0 128 57.308 128 128v0 768c0 70.692-57.308 128-128 128v0h-768zM692.992 628.992c-5.791 5.789-13.789 9.369-22.624 9.369s-16.833-3.58-22.624-9.369l-262.144-262.144v177.152c0 17.673-14.327 32-32 32s-32-14.327-32-32v0-254.4c0-17.673 14.327-32 32-32v0h254.4c17.673 0 32 14.327 32 32s-14.327 32-32 32v0h-177.152l262.144 262.144c5.789 5.791 9.369 13.789 9.369 22.624s-3.58 16.833-9.369 22.624v0z" />
<glyph unicode="&#xe91e;" glyph-name="arrow-down-left-square-fill" data-tags="arrow-down-left-square-fill" d="M128 960c-70.692 0-128-57.308-128-128v0-768c0-70.692 57.308-128 128-128v0h768c70.692 0 128 57.308 128 128v0 768c0 70.692-57.308 128-128 128v0h-768zM647.744 628.992c5.827 6.027 13.985 9.769 23.017 9.769 17.673 0 32-14.327 32-32 0-9.032-3.742-17.19-9.76-23.009l-262.153-262.153h177.152c17.673 0 32-14.327 32-32s-14.327-32-32-32v0h-254.4c-17.673 0-32 14.327-32 32v0 254.4c0 17.673 14.327 32 32 32s32-14.327 32-32v0-177.152l262.144 262.144z" />
<glyph unicode="&#xe91f;" glyph-name="arrow-down-right" data-tags="arrow-down-right" d="M896 96c0-17.673-14.327-32-32-32v0h-384c-17.673 0-32 14.327-32 32s14.327 32 32 32v0h306.752l-649.408 649.344c-5.798 5.798-9.384 13.808-9.384 22.656 0 17.695 14.345 32.040 32.040 32.040 8.848 0 16.858-3.586 22.656-9.384v0l649.344-649.408v306.752c0 17.673 14.327 32 32 32s32-14.327 32-32v0-384z" />
<glyph unicode="&#xe920;" glyph-name="arrow-down-right-circle" data-tags="arrow-down-right-circle" d="M512 0v0c-247.424 0-448 200.576-448 448s200.576 448 448 448v0c247.424 0 448-200.576 448-448s-200.576-448-448-448zM512-64c282.77 0 512 229.23 512 512s-229.23 512-512 512v0c-282.77 0-512-229.23-512-512s229.23-512 512-512v0zM331.008 628.992c5.791 5.789 13.789 9.369 22.624 9.369s16.833-3.58 22.624-9.369l262.144-262.144v177.152c0 17.673 14.327 32 32 32s32-14.327 32-32v0-254.4c0-17.673-14.327-32-32-32v0h-254.4c-17.673 0-32 14.327-32 32s14.327 32 32 32v0h177.152l-262.144 262.144c-5.789 5.791-9.369 13.789-9.369 22.624s3.58 16.833 9.369 22.624v0z" />
<glyph unicode="&#xe921;" glyph-name="arrow-down-right-circle-fill" data-tags="arrow-down-right-circle-fill" d="M1024 448c0-282.77-229.23-512-512-512s-512 229.23-512 512v0c0 282.77 229.23 512 512 512s512-229.23 512-512v0zM376.256 628.992c-5.749 5.558-13.59 8.983-22.231 8.983-17.673 0-32-14.327-32-32 0-8.641 3.425-16.482 8.991-22.24l262.135-262.135h-177.152c-17.673 0-32-14.327-32-32s14.327-32 32-32v0h254.4c17.673 0 32 14.327 32 32v0 254.4c0 17.673-14.327 32-32 32s-32-14.327-32-32v0-177.152l-262.144 262.144z" />
<glyph unicode="&#xe922;" glyph-name="arrow-down-right-square" data-tags="arrow-down-right-square" d="M896 896v0c35.346 0 64-28.654 64-64v-768c0-35.346-28.654-64-64-64h-768c-35.346 0-64 28.654-64 64v768c0 35.346 28.654 64 64 64h768zM128 960c-70.692 0-128-57.308-128-128v0-768c0-70.692 57.308-128 128-128v0h768c70.692 0 128 57.308 128 128v0 768c0 70.692-57.308 128-128 128v0h-768zM331.008 628.992c5.791 5.789 13.789 9.369 22.624 9.369s16.833-3.58 22.624-9.369l262.144-262.144v177.152c0 17.673 14.327 32 32 32s32-14.327 32-32v0-254.4c0-17.673-14.327-32-32-32v0h-254.4c-17.673 0-32 14.327-32 32s14.327 32 32 32v0h177.152l-262.144 262.144c-5.789 5.791-9.369 13.789-9.369 22.624s3.58 16.833 9.369 22.624v0z" />
<glyph unicode="&#xe923;" glyph-name="arrow-down-right-square-fill" data-tags="arrow-down-right-square-fill" d="M128 960h768c70.692 0 128-57.308 128-128v-768c0-70.692-57.308-128-128-128h-768c-70.692 0-128 57.308-128 128v768c0 70.692 57.308 128 128 128zM376.256 628.992c-5.749 5.558-13.59 8.983-22.231 8.983-17.673 0-32-14.327-32-32 0-8.641 3.425-16.482 8.991-22.24l262.135-262.135h-177.152c-17.673 0-32-14.327-32-32s14.327-32 32-32v0h254.4c17.673 0 32 14.327 32 32v0 254.4c0 17.673-14.327 32-32 32s-32-14.327-32-32v0-177.152l-262.144 262.144z" />
<glyph unicode="&#xe924;" glyph-name="arrow-down-short" data-tags="arrow-down-short" d="M512 704c17.673 0 32-14.327 32-32v0-370.752l137.344 137.408c5.798 5.798 13.808 9.384 22.656 9.384 17.695 0 32.040-14.345 32.040-32.040 0-8.848-3.586-16.858-9.384-22.656v0l-192-192c-5.794-5.808-13.805-9.401-22.656-9.401s-16.862 3.593-22.655 9.401l-192.001 192.001c-5.798 5.798-9.384 13.808-9.384 22.656 0 17.695 14.345 32.040 32.040 32.040 8.848 0 16.858-3.586 22.656-9.384v0l137.344-137.408v370.752c0 17.673 14.327 32 32 32v0z" />
<glyph unicode="&#xe925;" glyph-name="arrow-down-square" data-tags="arrow-down-square" d="M896 896v0c35.346 0 64-28.654 64-64v-768c0-35.346-28.654-64-64-64h-768c-35.346 0-64 28.654-64 64v768c0 35.346 28.654 64 64 64h768zM128 960c-70.692 0-128-57.308-128-128v0-768c0-70.692 57.308-128 128-128v0h768c70.692 0 128 57.308 128 128v0 768c0 70.692-57.308 128-128 128v0h-768zM512 704c17.673 0 32-14.327 32-32v0-370.752l137.344 137.408c5.798 5.798 13.808 9.384 22.656 9.384 17.695 0 32.040-14.345 32.040-32.040 0-8.848-3.586-16.858-9.384-22.656v0l-192-192c-5.794-5.808-13.805-9.401-22.656-9.401s-16.862 3.593-22.655 9.401l-192.001 192.001c-5.798 5.798-9.384 13.808-9.384 22.656 0 17.695 14.345 32.040 32.040 32.040 8.848 0 16.858-3.586 22.656-9.384v0l137.344-137.408v370.752c0 17.673 14.327 32 32 32v0z" />
<glyph unicode="&#xe926;" glyph-name="arrow-down-square-fill" data-tags="arrow-down-square-fill" d="M128 960h768c70.692 0 128-57.308 128-128v-768c0-70.692-57.308-128-128-128h-768c-70.692 0-128 57.308-128 128v768c0 70.692 57.308 128 128 128zM544 672c0 17.673-14.327 32-32 32s-32-14.327-32-32v0-370.752l-137.344 137.408c-5.798 5.798-13.808 9.384-22.656 9.384-17.695 0-32.040-14.345-32.040-32.040 0-8.848 3.586-16.858 9.384-22.656v0l192-192c5.794-5.808 13.805-9.401 22.656-9.401s16.862 3.593 22.655 9.401l192.001 192.001c5.798 5.798 9.384 13.808 9.384 22.656 0 17.695-14.345 32.040-32.040 32.040-8.848 0-16.858-3.586-22.656-9.384v0l-137.344-137.408v370.752z" />
<glyph unicode="&#xe927;" glyph-name="arrow-down-up" data-tags="arrow-down-up" d="M736 0v0c-17.673 0-32 14.327-32 32v754.752l-201.344-201.408c-5.798-5.798-13.808-9.384-22.656-9.384-17.695 0-32.040 14.345-32.040 32.040 0 8.848 3.586 16.858 9.384 22.656l256.001 256.001c5.793 5.807 13.805 9.401 22.655 9.401s16.862-3.593 22.656-9.401l256-256c5.798-5.798 9.384-13.808 9.384-22.656 0-17.695-14.345-32.040-32.040-32.040-8.848 0-16.858 3.586-22.656 9.384l-201.344 201.408v-754.752c0-17.673-14.327-32-32-32zM288 896v0c-17.673 0-32-14.327-32-32v-754.752l-201.344 201.408c-5.798 5.798-13.808 9.384-22.656 9.384-17.695 0-32.040-14.345-32.040-32.040 0-8.848 3.586-16.858 9.384-22.656l256.001-256.001c5.793-5.807 13.805-9.401 22.655-9.401s16.862 3.593 22.656 9.401l256 256c5.798 5.798 9.384 13.808 9.384 22.656 0 17.695-14.345 32.040-32.040 32.040-8.848 0-16.858-3.586-22.656-9.384l-201.344-201.408v754.752c0 17.673-14.327 32-32 32z" />
<glyph unicode="&#xe928;" glyph-name="arrow-left" data-tags="arrow-left" d="M960 448c0 17.673-14.327 32-32 32v0h-754.752l201.408 201.344c5.798 5.798 9.384 13.808 9.384 22.656 0 17.695-14.345 32.040-32.040 32.040-8.848 0-16.858-3.586-22.656-9.384v0l-256-256c-5.808-5.794-9.401-13.805-9.401-22.656s3.593-16.862 9.401-22.655l256.001-256.001c5.798-5.798 13.808-9.384 22.656-9.384 17.695 0 32.040 14.345 32.040 32.040 0 8.848-3.586 16.858-9.384 22.656v0l-201.408 201.344h754.752c17.673 0 32 14.327 32 32v0z" />
<glyph unicode="&#xe929;" glyph-name="arrow-left-circle" data-tags="arrow-left-circle" d="M512 0v0c-247.424 0-448 200.576-448 448s200.576 448 448 448v0c247.424 0 448-200.576 448-448s-200.576-448-448-448zM512-64c282.77 0 512 229.23 512 512s-229.23 512-512 512v0c-282.77 0-512-229.23-512-512s229.23-512 512-512v0zM768 448c0-17.673-14.327-32-32-32v0h-370.752l137.408-137.344c5.798-5.798 9.384-13.808 9.384-22.656 0-17.695-14.345-32.040-32.040-32.040-8.848 0-16.858 3.586-22.656 9.384v0l-192 192c-5.808 5.794-9.401 13.805-9.401 22.656s3.593 16.862 9.401 22.655l192.001 192.001c5.798 5.798 13.808 9.384 22.656 9.384 17.695 0 32.040-14.345 32.040-32.040 0-8.848-3.586-16.858-9.384-22.656v0l-137.408-137.344h370.752c17.673 0 32-14.327 32-32v0z" />
<glyph unicode="&#xe92a;" glyph-name="arrow-left-circle-fill" data-tags="arrow-left-circle-fill" d="M1024 448c0-282.77-229.23-512-512-512s-512 229.23-512 512v0c0 282.77 229.23 512 512 512s512-229.23 512-512v0zM736 416c17.673 0 32 14.327 32 32s-14.327 32-32 32v0h-370.752l137.408 137.344c5.798 5.798 9.384 13.808 9.384 22.656 0 17.695-14.345 32.040-32.040 32.040-8.848 0-16.858-3.586-22.656-9.384v0l-192-192c-5.808-5.794-9.401-13.805-9.401-22.656s3.593-16.862 9.401-22.655l192.001-192.001c5.798-5.798 13.808-9.384 22.656-9.384 17.695 0 32.040 14.345 32.040 32.040 0 8.848-3.586 16.858-9.384 22.656v0l-137.408 137.344h370.752z" />
<glyph unicode="&#xe92b;" glyph-name="arrow-left-right" data-tags="arrow-left-right" d="M64 224v0c0 17.673 14.327 32 32 32h754.752l-201.408 201.344c-5.798 5.798-9.384 13.808-9.384 22.656 0 17.695 14.345 32.040 32.040 32.040 8.848 0 16.858-3.586 22.656-9.384l256.001-256.001c5.807-5.793 9.401-13.805 9.401-22.655s-3.593-16.862-9.401-22.656l-256-256c-5.798-5.798-13.808-9.384-22.656-9.384-17.695 0-32.040 14.345-32.040 32.040 0 8.848 3.586 16.858 9.384 22.656l201.408 201.344h-754.752c-17.673 0-32 14.327-32 32zM960 672v0c0 17.673-14.327 32-32 32h-754.752l201.408 201.344c5.798 5.798 9.384 13.808 9.384 22.656 0 17.695-14.345 32.040-32.040 32.040-8.848 0-16.858-3.586-22.656-9.384l-256.001-256.001c-5.807-5.793-9.401-13.805-9.401-22.655s3.593-16.862 9.401-22.656l256-256c5.798-5.798 13.808-9.384 22.656-9.384 17.695 0 32.040 14.345 32.040 32.040 0 8.848-3.586 16.858-9.384 22.656l-201.408 201.344h754.752c17.673 0 32 14.327 32 32z" />
<glyph unicode="&#xe92c;" glyph-name="arrow-left-short" data-tags="arrow-left-short" d="M768 448c0-17.673-14.327-32-32-32v0h-370.752l137.408-137.344c5.798-5.798 9.384-13.808 9.384-22.656 0-17.695-14.345-32.040-32.040-32.040-8.848 0-16.858 3.586-22.656 9.384v0l-192 192c-5.808 5.794-9.401 13.805-9.401 22.656s3.593 16.862 9.401 22.655l192.001 192.001c5.798 5.798 13.808 9.384 22.656 9.384 17.695 0 32.040-14.345 32.040-32.040 0-8.848-3.586-16.858-9.384-22.656v0l-137.408-137.344h370.752c17.673 0 32-14.327 32-32v0z" />
<glyph unicode="&#xe92d;" glyph-name="arrow-left-square" data-tags="arrow-left-square" d="M896 896v0c35.346 0 64-28.654 64-64v-768c0-35.346-28.654-64-64-64h-768c-35.346 0-64 28.654-64 64v768c0 35.346 28.654 64 64 64h768zM128 960c-70.692 0-128-57.308-128-128v0-768c0-70.692 57.308-128 128-128v0h768c70.692 0 128 57.308 128 128v0 768c0 70.692-57.308 128-128 128v0h-768zM768 448c0-17.673-14.327-32-32-32v0h-370.752l137.408-137.344c5.798-5.798 9.384-13.808 9.384-22.656 0-17.695-14.345-32.040-32.040-32.040-8.848 0-16.858 3.586-22.656 9.384v0l-192 192c-5.808 5.794-9.401 13.805-9.401 22.656s3.593 16.862 9.401 22.655l192.001 192.001c5.798 5.798 13.808 9.384 22.656 9.384 17.695 0 32.040-14.345 32.040-32.040 0-8.848-3.586-16.858-9.384-22.656v0l-137.408-137.344h370.752c17.673 0 32-14.327 32-32v0z" />
<glyph unicode="&#xe92e;" glyph-name="arrow-left-square-fill" data-tags="arrow-left-square-fill" d="M128 960h768c70.692 0 128-57.308 128-128v-768c0-70.692-57.308-128-128-128h-768c-70.692 0-128 57.308-128 128v768c0 70.692 57.308 128 128 128zM736 416c17.673 0 32 14.327 32 32s-14.327 32-32 32v0h-370.752l137.408 137.344c5.798 5.798 9.384 13.808 9.384 22.656 0 17.695-14.345 32.040-32.040 32.040-8.848 0-16.858-3.586-22.656-9.384v0l-192-192c-5.808-5.794-9.401-13.805-9.401-22.656s3.593-16.862 9.401-22.655l192.001-192.001c5.798-5.798 13.808-9.384 22.656-9.384 17.695 0 32.040 14.345 32.040 32.040 0 8.848-3.586 16.858-9.384 22.656v0l-137.408 137.344h370.752z" />
<glyph unicode="&#xe92f;" glyph-name="arrow-repeat" data-tags="arrow-repeat" d="M738.176 512h251.648c8.834-0.003 15.994-7.166 15.994-16 0-3.907-1.4-7.487-3.726-10.265l0.020 0.025-125.824-151.040c-2.955-3.526-7.362-5.753-12.288-5.753s-9.333 2.226-12.268 5.728l-0.020 0.025-125.824 151.040c-2.306 2.753-3.706 6.333-3.706 10.24 0 8.834 7.16 15.997 15.994 16v0zM34.176 384h251.648c8.834 0.003 15.994 7.166 15.994 16 0 3.907-1.4 7.487-3.726 10.265l0.020-0.025-125.824 151.040c-2.955 3.526-7.362 5.753-12.288 5.753s-9.333-2.226-12.268-5.728l-0.020-0.025-125.824-151.040c-2.306-2.753-3.706-6.333-3.706-10.24 0-8.834 7.16-15.997 15.994-16v0zM512 768h0.002c154.083-0.019 282.732-108.897 313.598-256h65.088l-0.333 2.3c-31.522 180.419-188.936 317.559-378.381 317.559-118.908 0-225.197-54.029-296.167-139.507l0.030 0.034c-4.992-5.644-8.021-13.064-8.021-21.191 0-17.673 14.327-32 32-32 10.28 0 19.427 4.847 25.336 12.453 58.688 71.104 147.52 116.352 246.848 116.352zM198.4 384h-65.088l0.333-2.3c31.522-180.419 188.936-317.559 378.381-317.559 118.908 0 225.197 54.029 296.167 139.507l-0.030-0.034c4.992 5.644 8.021 13.064 8.021 21.191 0 17.673-14.327 32-32 32-10.28 0-19.427-4.847-25.336-12.453l-0.424-0.526c-58.721-70.713-147.303-115.742-246.402-115.742-154.071 0-282.721 108.841-313.622 255.916z" />
<glyph unicode="&#xe930;" glyph-name="arrow-return-left" data-tags="arrow-return-left" d="M928 864c17.673 0 32-14.327 32-32v0-307.2c0-88.366-71.634-160-160-160v0h-626.752l214.208-214.144c5.798-5.798 9.384-13.808 9.384-22.656 0-17.695-14.345-32.040-32.040-32.040-8.848 0-16.858 3.586-22.656 9.384v0l-268.8 268.8c-5.808 5.794-9.401 13.805-9.401 22.656s3.593 16.862 9.401 22.655l256.001 256.001c5.798 5.798 13.808 9.384 22.656 9.384 17.695 0 32.040-14.345 32.040-32.040 0-8.848-3.586-16.858-9.384-22.656v0l-201.408-201.344h626.752c53.019 0 96 42.981 96 96v307.2c0 17.673 14.327 32 32 32v0z" />
<glyph unicode="&#xe931;" glyph-name="arrow-return-right" data-tags="arrow-return-right" d="M96 864c-17.673 0-32-14.327-32-32v0-307.2c0-88.366 71.634-160 160-160v0h626.752l-214.208-214.144c-5.798-5.798-9.384-13.808-9.384-22.656 0-17.695 14.345-32.040 32.040-32.040 8.848 0 16.858 3.586 22.656 9.384v0l268.8 268.8c5.808 5.794 9.401 13.805 9.401 22.656s-3.593 16.862-9.401 22.655l-256.001 256.001c-5.798 5.798-13.808 9.384-22.656 9.384-17.695 0-32.040-14.345-32.040-32.040 0-8.848 3.586-16.858 9.384-22.656v0l201.408-201.344h-626.752c-53.019 0-96 42.981-96 96v307.2c0 17.673-14.327 32-32 32v0z" />
<glyph unicode="&#xe932;" glyph-name="arrow-right" data-tags="arrow-right" d="M64 448c0 17.673 14.327 32 32 32v0h754.752l-201.408 201.344c-5.798 5.798-9.384 13.808-9.384 22.656 0 17.695 14.345 32.040 32.040 32.040 8.848 0 16.858-3.586 22.656-9.384v0l256-256c5.808-5.794 9.401-13.805 9.401-22.656s-3.593-16.862-9.401-22.655l-256.001-256.001c-5.798-5.798-13.808-9.384-22.656-9.384-17.695 0-32.040 14.345-32.040 32.040 0 8.848 3.586 16.858 9.384 22.656v0l201.408 201.344h-754.752c-17.673 0-32 14.327-32 32v0z" />
<glyph unicode="&#xe933;" glyph-name="arrow-right-circle" data-tags="arrow-right-circle" d="M512 0v0c-247.424 0-448 200.576-448 448s200.576 448 448 448v0c247.424 0 448-200.576 448-448s-200.576-448-448-448zM512-64c282.77 0 512 229.23 512 512s-229.23 512-512 512v0c-282.77 0-512-229.23-512-512s229.23-512 512-512v0zM256 448c0-17.673 14.327-32 32-32v0h370.752l-137.408-137.344c-5.798-5.798-9.384-13.808-9.384-22.656 0-17.695 14.345-32.040 32.040-32.040 8.848 0 16.858 3.586 22.656 9.384v0l192 192c5.808 5.794 9.401 13.805 9.401 22.656s-3.593 16.862-9.401 22.655l-192.001 192.001c-5.798 5.798-13.808 9.384-22.656 9.384-17.695 0-32.040-14.345-32.040-32.040 0-8.848 3.586-16.858 9.384-22.656v0l137.408-137.344h-370.752c-17.673 0-32-14.327-32-32v0z" />
<glyph unicode="&#xe934;" glyph-name="arrow-right-circle-fill" data-tags="arrow-right-circle-fill" d="M1024 448v0c0 282.77-229.23 512-512 512s-512-229.23-512-512v0c0-282.77 229.23-512 512-512s512 229.23 512 512zM288 416c-17.673 0-32 14.327-32 32s14.327 32 32 32v0h370.752l-137.408 137.344c-5.798 5.798-9.384 13.808-9.384 22.656 0 17.695 14.345 32.040 32.040 32.040 8.848 0 16.858-3.586 22.656-9.384v0l192-192c5.808-5.794 9.401-13.805 9.401-22.656s-3.593-16.862-9.401-22.655l-192.001-192.001c-5.798-5.798-13.808-9.384-22.656-9.384-17.695 0-32.040 14.345-32.040 32.040 0 8.848 3.586 16.858 9.384 22.656v0l137.408 137.344h-370.752z" />
<glyph unicode="&#xe935;" glyph-name="arrow-right-short" data-tags="arrow-right-short" d="M256 448c0 17.673 14.327 32 32 32v0h370.752l-137.408 137.344c-5.798 5.798-9.384 13.808-9.384 22.656 0 17.695 14.345 32.040 32.040 32.040 8.848 0 16.858-3.586 22.656-9.384v0l192-192c5.808-5.794 9.401-13.805 9.401-22.656s-3.593-16.862-9.401-22.655l-192.001-192.001c-5.798-5.798-13.808-9.384-22.656-9.384-17.695 0-32.040 14.345-32.040 32.040 0 8.848 3.586 16.858 9.384 22.656v0l137.408 137.344h-370.752c-17.673 0-32 14.327-32 32v0z" />
<glyph unicode="&#xe936;" glyph-name="arrow-right-square" data-tags="arrow-right-square" d="M896 896v0c35.346 0 64-28.654 64-64v-768c0-35.346-28.654-64-64-64h-768c-35.346 0-64 28.654-64 64v768c0 35.346 28.654 64 64 64h768zM128 960c-70.692 0-128-57.308-128-128v0-768c0-70.692 57.308-128 128-128v0h768c70.692 0 128 57.308 128 128v0 768c0 70.692-57.308 128-128 128v0h-768zM256 448c0-17.673 14.327-32 32-32v0h370.752l-137.408-137.344c-5.798-5.798-9.384-13.808-9.384-22.656 0-17.695 14.345-32.040 32.040-32.040 8.848 0 16.858 3.586 22.656 9.384v0l192 192c5.808 5.794 9.401 13.805 9.401 22.656s-3.593 16.862-9.401 22.655l-192.001 192.001c-5.798 5.798-13.808 9.384-22.656 9.384-17.695 0-32.040-14.345-32.040-32.040 0-8.848 3.586-16.858 9.384-22.656v0l137.408-137.344h-370.752c-17.673 0-32-14.327-32-32v0z" />
<glyph unicode="&#xe937;" glyph-name="arrow-right-square-fill" data-tags="arrow-right-square-fill" d="M128 960c-70.692 0-128-57.308-128-128v0-768c0-70.692 57.308-128 128-128v0h768c70.692 0 128 57.308 128 128v0 768c0 70.692-57.308 128-128 128v0h-768zM288 416c-17.673 0-32 14.327-32 32s14.327 32 32 32v0h370.752l-137.408 137.344c-5.798 5.798-9.384 13.808-9.384 22.656 0 17.695 14.345 32.040 32.040 32.040 8.848 0 16.858-3.586 22.656-9.384v0l192-192c5.808-5.794 9.401-13.805 9.401-22.656s-3.593-16.862-9.401-22.655l-192.001-192.001c-5.798-5.798-13.808-9.384-22.656-9.384-17.695 0-32.040 14.345-32.040 32.040 0 8.848 3.586 16.858 9.384 22.656v0l137.408 137.344h-370.752z" />
<glyph unicode="&#xe938;" glyph-name="arrows-angle-contract" data-tags="arrows-angle-contract" d="M11.008-52.992v0c-5.789 5.791-9.369 13.789-9.369 22.624s3.58 16.833 9.369 22.624l262.144 262.144h-177.152c-17.673 0-32 14.327-32 32s14.327 32 32 32h254.4c17.673 0 32-14.327 32-32v-254.4c0-17.673-14.327-32-32-32s-32 14.327-32 32v177.152l-262.144-262.144c-5.791-5.789-13.789-9.369-22.624-9.369s-16.833 3.58-22.624 9.369zM1012.992 948.992v0c5.789-5.791 9.369-13.789 9.369-22.624s-3.58-16.833-9.369-22.624l-262.144-262.144h177.152c17.673 0 32-14.327 32-32s-14.327-32-32-32h-254.4c-17.673 0-32 14.327-32 32v254.4c0 17.673 14.327 32 32 32s32-14.327 32-32v-177.152l262.144 262.144c5.791 5.789 13.789 9.369 22.624 9.369s16.833-3.58 22.624-9.369z" />
<glyph unicode="&#xe939;" glyph-name="arrows-angle-expand" data-tags="arrows-angle-expand" d="M372.992 308.992v0c5.789-5.791 9.369-13.789 9.369-22.624s-3.58-16.833-9.369-22.624l-262.144-262.144h177.152c17.673 0 32-14.327 32-32s-14.327-32-32-32h-254.4c-17.673 0-32 14.327-32 32v254.4c0 17.673 14.327 32 32 32s32-14.327 32-32v-177.152l262.144 262.144c5.791 5.789 13.789 9.369 22.624 9.369s16.833-3.58 22.624-9.369zM651.008 587.008v0c-5.789 5.791-9.369 13.789-9.369 22.624s3.58 16.833 9.369 22.624l262.144 262.144h-177.152c-17.673 0-32 14.327-32 32s14.327 32 32 32h254.4c17.673 0 32-14.327 32-32v-254.4c0-17.673-14.327-32-32-32s-32 14.327-32 32v177.152l-262.144-262.144c-5.791-5.789-13.789-9.369-22.624-9.369s-16.833 3.58-22.624 9.369z" />
<glyph unicode="&#xe93a;" glyph-name="arrows-collapse" data-tags="arrows-collapse" d="M64 448v0c0-17.673 14.327-32 32-32h832c17.673 0 32 14.327 32 32s-14.327 32-32 32h-832c-17.673 0-32-14.327-32-32zM512 960v0c-17.673 0-32-14.327-32-32v-242.752l-73.344 73.408c-5.798 5.798-13.808 9.384-22.656 9.384-17.695 0-32.040-14.345-32.040-32.040 0-8.848 3.586-16.858 9.384-22.656l128.001-128.001c5.793-5.807 13.805-9.401 22.655-9.401s16.862 3.593 22.656 9.401l128 128c5.798 5.798 9.384 13.808 9.384 22.656 0 17.695-14.345 32.040-32.040 32.040-8.848 0-16.858-3.586-22.656-9.384l-73.344-73.408v242.752c0 17.673-14.327 32-32 32zM480 210.752v-242.752c0-17.673 14.327-32 32-32s32 14.327 32 32v242.752l73.344-73.408c5.798-5.798 13.808-9.384 22.656-9.384 17.695 0 32.040 14.345 32.040 32.040 0 8.848-3.586 16.858-9.384 22.656l-128.001 128.001c-5.793 5.807-13.805 9.401-22.655 9.401s-16.862-3.593-22.656-9.401l-128-128c-5.798-5.798-9.384-13.808-9.384-22.656 0-17.695 14.345-32.040 32.040-32.040 8.848 0 16.858 3.586 22.656 9.384l73.344 73.408z" />
<glyph unicode="&#xe93b;" glyph-name="arrows-expand" data-tags="arrows-expand" d="M64 448v0c0-17.673 14.327-32 32-32h832c17.673 0 32 14.327 32 32s-14.327 32-32 32h-832c-17.673 0-32-14.327-32-32zM489.344 950.656l-128-128c-5.798-5.798-9.384-13.808-9.384-22.656 0-17.695 14.345-32.040 32.040-32.040 8.848 0 16.858 3.586 22.656 9.384l73.344 73.408v-242.752c0-17.673 14.327-32 32-32s32 14.327 32 32v242.752l73.344-73.408c5.798-5.798 13.808-9.384 22.656-9.384 17.695 0 32.040 14.345 32.040 32.040 0 8.848-3.586 16.858-9.384 22.656l-128.001 128.001c-5.793 5.807-13.805 9.401-22.655 9.401s-16.862-3.593-22.656-9.401zM512 320v0c-17.673 0-32-14.327-32-32v-242.752l-73.344 73.408c-5.798 5.798-13.808 9.384-22.656 9.384-17.695 0-32.040-14.345-32.040-32.040 0-8.848 3.586-16.858 9.384-22.656l128.001-128.001c5.793-5.807 13.805-9.401 22.655-9.401s16.862 3.593 22.656 9.401l128 128c5.798 5.798 9.384 13.808 9.384 22.656 0 17.695-14.345 32.040-32.040 32.040-8.848 0-16.858-3.586-22.656-9.384l-73.344-73.408v242.752c0 17.673-14.327 32-32 32z" />
<glyph unicode="&#xe93c;" glyph-name="arrows-fullscreen" data-tags="arrows-fullscreen" d="M372.992 308.992v0c5.789-5.791 9.369-13.789 9.369-22.624s-3.58-16.833-9.369-22.624l-262.144-262.144h177.152c17.673 0 32-14.327 32-32s-14.327-32-32-32h-254.4c-17.673 0-32 14.327-32 32v254.4c0 17.673 14.327 32 32 32s32-14.327 32-32v-177.152l262.144 262.144c5.791 5.789 13.789 9.369 22.624 9.369s16.833-3.58 22.624-9.369zM651.008 308.992v0c-5.789-5.791-9.369-13.789-9.369-22.624s3.58-16.833 9.369-22.624l262.144-262.144h-177.152c-17.673 0-32-14.327-32-32s14.327-32 32-32h254.4c17.673 0 32 14.327 32 32v254.4c0 17.673-14.327 32-32 32s-32-14.327-32-32v-177.152l-262.144 262.144c-5.791 5.789-13.789 9.369-22.624 9.369s-16.833-3.58-22.624-9.369zM651.008 587.008v0c-5.789 5.791-9.369 13.789-9.369 22.624s3.58 16.833 9.369 22.624l262.144 262.144h-177.152c-17.673 0-32 14.327-32 32s14.327 32 32 32h254.4c17.673 0 32-14.327 32-32v-254.4c0-17.673-14.327-32-32-32s-32 14.327-32 32v177.152l-262.144-262.144c-5.791-5.789-13.789-9.369-22.624-9.369s-16.833 3.58-22.624 9.369zM372.992 587.008v0c5.789 5.791 9.369 13.789 9.369 22.624s-3.58 16.833-9.369 22.624l-262.144 262.144h177.152c17.673 0 32 14.327 32 32s-14.327 32-32 32h-254.4c-17.673 0-32-14.327-32-32v-254.4c0-17.673 14.327-32 32-32s32 14.327 32 32v177.152l262.144-262.144c5.791-5.789 13.789-9.369 22.624-9.369s16.833 3.58 22.624 9.369z" />
<glyph unicode="&#xe93d;" glyph-name="arrows-move" data-tags="arrows-move" d="M489.344 950.656l-128-128c-5.798-5.798-9.384-13.808-9.384-22.656 0-17.695 14.345-32.040 32.040-32.040 8.848 0 16.858 3.586 22.656 9.384l73.344 73.408v-242.752c0-17.673 14.327-32 32-32s32 14.327 32 32v242.752l73.344-73.408c5.798-5.798 13.808-9.384 22.656-9.384 17.695 0 32.040 14.345 32.040 32.040 0 8.848-3.586 16.858-9.384 22.656l-128.001 128.001c-5.793 5.807-13.805 9.401-22.655 9.401s-16.862-3.593-22.656-9.401zM512 320v0c-17.673 0-32-14.327-32-32v-242.752l-73.344 73.408c-5.798 5.798-13.808 9.384-22.656 9.384-17.695 0-32.040-14.345-32.040-32.040 0-8.848 3.586-16.858 9.384-22.656l128.001-128.001c5.793-5.807 13.805-9.401 22.655-9.401s16.862 3.593 22.656 9.401l128 128c5.798 5.798 9.384 13.808 9.384 22.656 0 17.695-14.345 32.040-32.040 32.040-8.848 0-16.858-3.586-22.656-9.384l-73.344-73.408v242.752c0 17.673-14.327 32-32 32zM9.344 425.344l128-128c5.798-5.798 13.808-9.384 22.656-9.384 17.695 0 32.040 14.345 32.040 32.040 0 8.848-3.586 16.858-9.384 22.656l-73.408 73.344h242.752c17.673 0 32 14.327 32 32s-14.327 32-32 32h-242.752l73.408 73.344c5.798 5.798 9.384 13.808 9.384 22.656 0 17.695-14.345 32.040-32.040 32.040-8.848 0-16.858-3.586-22.656-9.384l-128.001-128.001c-5.807-5.793-9.401-13.805-9.401-22.655s3.593-16.862 9.401-22.656zM640 448v0c0-17.673 14.327-32 32-32h242.752l-73.408-73.344c-5.798-5.798-9.384-13.808-9.384-22.656 0-17.695 14.345-32.040 32.040-32.040 8.848 0 16.858 3.586 22.656 9.384l128.001 128.001c5.807 5.793 9.401 13.805 9.401 22.655s-3.593 16.862-9.401 22.656l-128 128c-5.798 5.798-13.808 9.384-22.656 9.384-17.695 0-32.040-14.345-32.040-32.040 0-8.848 3.586-16.858 9.384-22.656l73.408-73.344h-242.752c-17.673 0-32-14.327-32-32z" />
<glyph unicode="&#xe93e;" glyph-name="arrow-up" data-tags="arrow-up" d="M512 0c17.673 0 32 14.327 32 32v0 754.752l201.344-201.408c5.798-5.798 13.808-9.384 22.656-9.384 17.695 0 32.040 14.345 32.040 32.040 0 8.848-3.586 16.858-9.384 22.656v0l-256 256c-5.794 5.808-13.805 9.401-22.656 9.401s-16.862-3.593-22.655-9.401l-256.001-256.001c-5.798-5.798-9.384-13.808-9.384-22.656 0-17.695 14.345-32.040 32.040-32.040 8.848 0 16.858 3.586 22.656 9.384v0l201.344 201.408v-754.752c0-17.673 14.327-32 32-32v0z" />
<glyph unicode="&#xe93f;" glyph-name="arrow-up-circle" data-tags="arrow-up-circle" d="M512 0v0c-247.424 0-448 200.576-448 448s200.576 448 448 448v0c247.424 0 448-200.576 448-448s-200.576-448-448-448zM512-64c282.77 0 512 229.23 512 512s-229.23 512-512 512v0c-282.77 0-512-229.23-512-512s229.23-512 512-512v0zM512 192c17.673 0 32 14.327 32 32v0 370.752l137.344-137.408c5.798-5.798 13.808-9.384 22.656-9.384 17.695 0 32.040 14.345 32.040 32.040 0 8.848-3.586 16.858-9.384 22.656v0l-192 192c-5.794 5.808-13.805 9.401-22.656 9.401s-16.862-3.593-22.655-9.401l-192.001-192.001c-5.798-5.798-9.384-13.808-9.384-22.656 0-17.695 14.345-32.040 32.040-32.040 8.848 0 16.858 3.586 22.656 9.384v0l137.344 137.408v-370.752c0-17.673 14.327-32 32-32v0z" />
<glyph unicode="&#xe940;" glyph-name="arrow-up-circle-fill" data-tags="arrow-up-circle-fill" d="M1024 448v0c0 282.77-229.23 512-512 512s-512-229.23-512-512v0c0-282.77 229.23-512 512-512s512 229.23 512 512zM544 224c0-17.673-14.327-32-32-32s-32 14.327-32 32v0 370.752l-137.344-137.408c-5.798-5.798-13.808-9.384-22.656-9.384-17.695 0-32.040 14.345-32.040 32.040 0 8.848 3.586 16.858 9.384 22.656v0l192 192c5.794 5.808 13.805 9.401 22.656 9.401s16.862-3.593 22.655-9.401l192.001-192.001c5.798-5.798 9.384-13.808 9.384-22.656 0-17.695-14.345-32.040-32.040-32.040-8.848 0-16.858 3.586-22.656 9.384v0l-137.344 137.408v-370.752z" />
<glyph unicode="&#xe941;" glyph-name="arrow-up-left" data-tags="arrow-up-left" d="M128 800c0 17.673 14.327 32 32 32v0h384c17.673 0 32-14.327 32-32s-14.327-32-32-32v0h-306.752l649.408-649.344c5.798-5.798 9.384-13.808 9.384-22.656 0-17.695-14.345-32.040-32.040-32.040-8.848 0-16.858 3.586-22.656 9.384v0l-649.344 649.408v-306.752c0-17.673-14.327-32-32-32s-32 14.327-32 32v0 384z" />
<glyph unicode="&#xe942;" glyph-name="arrow-up-left-circle" data-tags="arrow-up-left-circle" d="M512 0v0c-247.424 0-448 200.576-448 448s200.576 448 448 448v0c247.424 0 448-200.576 448-448s-200.576-448-448-448zM512-64c282.77 0 512 229.23 512 512s-229.23 512-512 512v0c-282.77 0-512-229.23-512-512s229.23-512 512-512v0zM692.992 267.008c-5.791-5.789-13.789-9.369-22.624-9.369s-16.833 3.58-22.624 9.369l-262.144 262.144v-177.152c0-17.673-14.327-32-32-32s-32 14.327-32 32v0 254.4c0 17.673 14.327 32 32 32v0h254.4c17.673 0 32-14.327 32-32s-14.327-32-32-32v0h-177.152l262.144-262.144c5.789-5.791 9.369-13.789 9.369-22.624s-3.58-16.833-9.369-22.624v0z" />
<glyph unicode="&#xe943;" glyph-name="arrow-up-left-circle-fill" data-tags="arrow-up-left-circle-fill" d="M1024 448c0-282.77-229.23-512-512-512s-512 229.23-512 512v0c0 282.77 229.23 512 512 512s512-229.23 512-512v0zM647.744 267.008c5.827-6.027 13.985-9.769 23.017-9.769 17.673 0 32 14.327 32 32 0 9.032-3.742 17.19-9.76 23.009l-262.153 262.153h177.152c17.673 0 32 14.327 32 32s-14.327 32-32 32v0h-254.4c-17.673 0-32-14.327-32-32v0-254.4c0-17.673 14.327-32 32-32s32 14.327 32 32v0 177.152l262.144-262.144z" />
<glyph unicode="&#xe944;" glyph-name="arrow-up-left-square" data-tags="arrow-up-left-square" d="M896 896v0c35.346 0 64-28.654 64-64v-768c0-35.346-28.654-64-64-64h-768c-35.346 0-64 28.654-64 64v768c0 35.346 28.654 64 64 64h768zM128 960c-70.692 0-128-57.308-128-128v0-768c0-70.692 57.308-128 128-128v0h768c70.692 0 128 57.308 128 128v0 768c0 70.692-57.308 128-128 128v0h-768zM692.992 267.008c-5.791-5.789-13.789-9.369-22.624-9.369s-16.833 3.58-22.624 9.369l-262.144 262.144v-177.152c0-17.673-14.327-32-32-32s-32 14.327-32 32v0 254.4c0 17.673 14.327 32 32 32v0h254.4c17.673 0 32-14.327 32-32s-14.327-32-32-32v0h-177.152l262.144-262.144c5.789-5.791 9.369-13.789 9.369-22.624s-3.58-16.833-9.369-22.624v0z" />
<glyph unicode="&#xe945;" glyph-name="arrow-up-left-square-fill" data-tags="arrow-up-left-square-fill" d="M128 960h768c70.692 0 128-57.308 128-128v-768c0-70.692-57.308-128-128-128h-768c-70.692 0-128 57.308-128 128v768c0 70.692 57.308 128 128 128zM647.744 267.008c5.827-6.027 13.985-9.769 23.017-9.769 17.673 0 32 14.327 32 32 0 9.032-3.742 17.19-9.76 23.009l-262.153 262.153h177.152c17.673 0 32 14.327 32 32s-14.327 32-32 32v0h-254.4c-17.673 0-32-14.327-32-32v0-254.4c0-17.673 14.327-32 32-32s32 14.327 32 32v0 177.152l262.144-262.144z" />
<glyph unicode="&#xe946;" glyph-name="arrow-up-right" data-tags="arrow-up-right" d="M896 800c0 17.673-14.327 32-32 32v0h-384c-17.673 0-32-14.327-32-32s14.327-32 32-32v0h306.752l-649.408-649.344c-5.798-5.798-9.384-13.808-9.384-22.656 0-17.695 14.345-32.040 32.040-32.040 8.848 0 16.858 3.586 22.656 9.384v0l649.344 649.408v-306.752c0-17.673 14.327-32 32-32s32 14.327 32 32v0 384z" />
<glyph unicode="&#xe947;" glyph-name="arrow-up-right-circle" data-tags="arrow-up-right-circle" d="M512 0v0c-247.424 0-448 200.576-448 448s200.576 448 448 448v0c247.424 0 448-200.576 448-448s-200.576-448-448-448zM512-64c282.77 0 512 229.23 512 512s-229.23 512-512 512v0c-282.77 0-512-229.23-512-512s229.23-512 512-512v0zM331.008 267.008c5.791-5.789 13.789-9.369 22.624-9.369s16.833 3.58 22.624 9.369l262.144 262.144v-177.152c0-17.673 14.327-32 32-32s32 14.327 32 32v0 254.4c0 17.673-14.327 32-32 32v0h-254.4c-17.673 0-32-14.327-32-32s14.327-32 32-32v0h177.152l-262.144-262.144c-5.789-5.791-9.369-13.789-9.369-22.624s3.58-16.833 9.369-22.624v0z" />
<glyph unicode="&#xe948;" glyph-name="arrow-up-right-circle-fill" data-tags="arrow-up-right-circle-fill" d="M1024 448v0c0 282.77-229.23 512-512 512s-512-229.23-512-512v0c0-282.77 229.23-512 512-512s512 229.23 512 512zM376.256 267.008c-5.827-6.027-13.985-9.769-23.017-9.769-17.673 0-32 14.327-32 32 0 9.032 3.742 17.19 9.76 23.009l262.153 262.153h-177.152c-17.673 0-32 14.327-32 32s14.327 32 32 32v0h254.4c17.673 0 32-14.327 32-32v0-254.4c0-17.673-14.327-32-32-32s-32 14.327-32 32v0 177.152l-262.144-262.144z" />
<glyph unicode="&#xe949;" glyph-name="arrow-up-right-square" data-tags="arrow-up-right-square" d="M896 896v0c35.346 0 64-28.654 64-64v-768c0-35.346-28.654-64-64-64h-768c-35.346 0-64 28.654-64 64v768c0 35.346 28.654 64 64 64h768zM128 960c-70.692 0-128-57.308-128-128v0-768c0-70.692 57.308-128 128-128v0h768c70.692 0 128 57.308 128 128v0 768c0 70.692-57.308 128-128 128v0h-768zM331.008 267.008c5.791-5.789 13.789-9.369 22.624-9.369s16.833 3.58 22.624 9.369l262.144 262.144v-177.152c0-17.673 14.327-32 32-32s32 14.327 32 32v0 254.4c0 17.673-14.327 32-32 32v0h-254.4c-17.673 0-32-14.327-32-32s14.327-32 32-32v0h177.152l-262.144-262.144c-5.789-5.791-9.369-13.789-9.369-22.624s3.58-16.833 9.369-22.624v0z" />
<glyph unicode="&#xe94a;" glyph-name="arrow-up-right-square-fill" data-tags="arrow-up-right-square-fill" d="M128 960c-70.692 0-128-57.308-128-128v0-768c0-70.692 57.308-128 128-128v0h768c70.692 0 128 57.308 128 128v0 768c0 70.692-57.308 128-128 128v0h-768zM376.256 267.008c-5.827-6.027-13.985-9.769-23.017-9.769-17.673 0-32 14.327-32 32 0 9.032 3.742 17.19 9.76 23.009l262.153 262.153h-177.152c-17.673 0-32 14.327-32 32s14.327 32 32 32v0h254.4c17.673 0 32-14.327 32-32v0-254.4c0-17.673-14.327-32-32-32s-32 14.327-32 32v0 177.152l-262.144-262.144z" />
<glyph unicode="&#xe94b;" glyph-name="arrow-up-short" data-tags="arrow-up-short" d="M512 192c17.673 0 32 14.327 32 32v0 370.752l137.344-137.408c5.798-5.798 13.808-9.384 22.656-9.384 17.695 0 32.040 14.345 32.040 32.040 0 8.848-3.586 16.858-9.384 22.656v0l-192 192c-5.794 5.808-13.805 9.401-22.656 9.401s-16.862-3.593-22.655-9.401l-192.001-192.001c-5.798-5.798-9.384-13.808-9.384-22.656 0-17.695 14.345-32.040 32.040-32.040 8.848 0 16.858 3.586 22.656 9.384v0l137.344 137.408v-370.752c0-17.673 14.327-32 32-32v0z" />
<glyph unicode="&#xe94c;" glyph-name="arrow-up-square" data-tags="arrow-up-square" d="M896 896v0c35.346 0 64-28.654 64-64v-768c0-35.346-28.654-64-64-64h-768c-35.346 0-64 28.654-64 64v768c0 35.346 28.654 64 64 64h768zM128 960c-70.692 0-128-57.308-128-128v0-768c0-70.692 57.308-128 128-128v0h768c70.692 0 128 57.308 128 128v0 768c0 70.692-57.308 128-128 128v0h-768zM512 192c17.673 0 32 14.327 32 32v0 370.752l137.344-137.408c5.798-5.798 13.808-9.384 22.656-9.384 17.695 0 32.040 14.345 32.040 32.040 0 8.848-3.586 16.858-9.384 22.656v0l-192 192c-5.794 5.808-13.805 9.401-22.656 9.401s-16.862-3.593-22.655-9.401l-192.001-192.001c-5.798-5.798-9.384-13.808-9.384-22.656 0-17.695 14.345-32.040 32.040-32.040 8.848 0 16.858 3.586 22.656 9.384v0l137.344 137.408v-370.752c0-17.673 14.327-32 32-32v0z" />
<glyph unicode="&#xe94d;" glyph-name="arrow-up-square-fill" data-tags="arrow-up-square-fill" d="M128 960h768c70.692 0 128-57.308 128-128v-768c0-70.692-57.308-128-128-128h-768c-70.692 0-128 57.308-128 128v768c0 70.692 57.308 128 128 128zM544 672c0 17.673-14.327 32-32 32s-32-14.327-32-32v0-370.752l-137.344 137.408c-5.798 5.798-13.808 9.384-22.656 9.384-17.695 0-32.040-14.345-32.040-32.040 0-8.848 3.586-16.858 9.384-22.656v0l192-192c5.794-5.808 13.805-9.401 22.656-9.401s16.862 3.593 22.655 9.401l192.001 192.001c5.798 5.798 9.384 13.808 9.384 22.656 0 17.695-14.345 32.040-32.040 32.040-8.848 0-16.858-3.586-22.656-9.384v0l-137.344-137.408v370.752z" />
<glyph unicode="&#xe94e;" glyph-name="aspect-ratio" data-tags="aspect-ratio" d="M0 736c0 53.019 42.981 96 96 96v0h832c53.019 0 96-42.981 96-96v0-576c0-53.019-42.981-96-96-96v0h-832c-53.019 0-96 42.981-96 96v0 576zM96 768c-17.673 0-32-14.327-32-32v0-576c0-17.673 14.327-32 32-32v0h832c17.673 0 32 14.327 32 32v0 576c0 17.673-14.327 32-32 32v0h-832zM128 672v-192c0-17.673 14.327-32 32-32s32 14.327 32 32v160h160c17.673 0 32 14.327 32 32s-14.327 32-32 32h-192c-17.673 0-32-14.327-32-32zM896 224v192c0 17.673-14.327 32-32 32s-32-14.327-32-32v-160h-160c-17.673 0-32-14.327-32-32s14.327-32 32-32h192c17.673 0 32 14.327 32 32z" />
<glyph unicode="&#xe94f;" glyph-name="aspect-ratio-fill" data-tags="aspect-ratio-fill" d="M96 832h832c53.019 0 96-42.981 96-96v-576c0-53.019-42.981-96-96-96h-832c-53.019 0-96 42.981-96 96v576c0 53.019 42.981 96 96 96zM160 704c-17.673 0-32-14.327-32-32v0-192c0-17.673 14.327-32 32-32s32 14.327 32 32v0 160h160c17.673 0 32 14.327 32 32s-14.327 32-32 32v0h-192zM864 192c17.673 0 32 14.327 32 32v0 192c0 17.673-14.327 32-32 32s-32-14.327-32-32v0-160h-160c-17.673 0-32-14.327-32-32s14.327-32 32-32v0h192z" />
<glyph unicode="&#xe950;" glyph-name="asterisk" data-tags="asterisk" d="M512 960c35.346 0 64-28.654 64-64v0-337.152l291.968 168.576c9.267 5.523 20.436 8.788 32.368 8.788 35.346 0 64-28.654 64-64 0-23.713-12.897-44.414-32.058-55.472l-0.309-0.165-291.968-168.576 291.968-168.576c19.471-11.222 32.368-31.923 32.368-55.636 0-35.346-28.654-64-64-64-11.932 0-23.101 3.265-32.662 8.951l0.295-0.162-291.968 168.576v-337.152c0-35.346-28.654-64-64-64s-64 28.654-64 64v0 337.152l-291.968-168.576c-9.267-5.523-20.436-8.788-32.368-8.788-35.346 0-64 28.654-64 64 0 23.713 12.897 44.414 32.058 55.472l0.309 0.165 291.968 168.576-291.968 168.576c-19.058 11.319-31.632 31.797-31.632 55.212 0 35.346 28.654 64 64 64 11.633 0 22.541-3.104 31.942-8.528l-0.309 0.165 291.968-168.576v337.152c0 35.346 28.654 64 64 64v0z" />
<glyph unicode="&#xe951;" glyph-name="at" data-tags="at" d="M838.784 497.792c0 189.888-143.936 322.048-350.848 322.048-214.4 0-361.344-148.352-361.344-364.928 0-223.552 143.040-365.312 368.768-365.312 55.168 0 108.096 7.872 147.456 21.44v55.168c-27.52-12.736-86.656-20.992-146.56-20.992-187.264 0-308.032 120.32-308.032 307.072 0 182.016 122.944 312.384 294.016 312.384 175.040 0 294.912-108.032 294.912-265.984 0-107.648-35.456-177.216-90.624-177.216-31.488 0-49.408 17.92-49.408 48.64v256.704h-66.048v-53.376h-7.040c-17.024 38.080-56.384 61.696-102.4 61.696-89.6 0-152.192-74.368-152.192-180.672 0-111.168 61.248-185.984 152.256-185.984 51.2 0 90.56 24.96 109.376 69.568h7.040c5.184-42.88 44.992-73.472 96.192-73.472 100.608 0 164.48 90.56 164.48 233.152zM379.456 452.736c0 76.608 34.56 122.048 93.184 122.048 59.52 0 97.536-47.232 97.536-122.048s-38.464-122.496-98.432-122.496c-57.28 0-92.288 46.4-92.288 122.496z" />
<glyph unicode="&#xe952;" glyph-name="award" data-tags="award" d="M618.816 904.704l118.912-18.048 53.888-107.52 85.568-84.48-19.584-118.656 19.584-118.656-85.568-84.48-53.888-107.52-118.912-18.048-106.816-55.296-106.816 55.296-118.912 18.048-53.888 107.52-85.568 84.48 19.584 118.656-19.584 118.656 85.568 84.48 53.888 107.52 118.912 18.048 106.816 55.296 106.816-55.296zM695.36 828.352l-96.64 14.656-86.72 44.928-86.72-44.928-96.64-14.656-43.776-87.36-69.504-68.608 15.936-96.384-16-96.384 69.568-68.608 43.776-87.36 96.64-14.656 86.72-44.928 86.784 44.928 96.576 14.656 43.776 87.36 69.504 68.608-15.872 96.384 15.872 96.384-69.504 68.608-43.776 87.36zM256 205.184v-269.184l256 64 256-64v269.184l-129.152-19.584-126.848-65.664-126.848 65.664-129.152 19.584z" />
<glyph unicode="&#xe953;" glyph-name="award-fill" data-tags="award-fill" d="M512 960l106.816-55.296 118.912-18.048 53.888-107.52 85.568-84.48-19.584-118.656 19.584-118.656-85.568-84.48-53.888-107.52-118.912-18.048-106.816-55.296-106.816 55.296-118.912 18.048-53.888 107.52-85.568 84.48 19.584 118.656-19.584 118.656 85.568 84.48 53.888 107.52 118.912 18.048 106.816 55.296zM256 205.184v-269.184l256 64 256-64v269.184l-129.152-19.584-126.848-65.664-126.848 65.664-129.152 19.584z" />
<glyph unicode="&#xe954;" glyph-name="back" data-tags="back" d="M0 832c0 70.692 57.308 128 128 128v0h512c70.692 0 128-57.308 128-128v0-128h128c70.692 0 128-57.308 128-128v0-512c0-70.692-57.308-128-128-128v0h-512c-70.692 0-128 57.308-128 128v0 128h-128c-70.692 0-128 57.308-128 128v0 512zM128 896c-35.346 0-64-28.654-64-64v0-512c0-35.346 28.654-64 64-64v0h512c35.346 0 64 28.654 64 64v0 512c0 35.346-28.654 64-64 64v0h-512z" />
<glyph unicode="&#xe955;" glyph-name="backspace" data-tags="backspace" d="M422.592 832h-0.003c-19.399-0.019-36.777-8.668-48.573-22.4l-310.016-361.6 310.023-361.685c11.737-13.662 29.14-22.315 48.564-22.315 0.001 0 0.003 0 0.004 0h453.12c35.346 0 64 28.654 64 64v640c0 35.346-28.654 64-64 64h-453.12zM875.712 896c70.692 0 128-57.308 128-128v0-640c0-70.692-57.308-128-128-128v0h-453.12c-0.016 0-0.035 0-0.054 0-38.789 0-73.548 17.254-97.021 44.505l-0.14 0.167-309.952 361.728c-9.583 11.124-15.419 25.712-15.419 41.664s5.836 30.541 15.489 41.748l-0.070-0.084 309.952 361.472c23.606 27.48 58.388 44.783 97.213 44.8h453.123zM373.056 630.656v0c5.791 5.789 13.789 9.369 22.624 9.369s16.833-3.58 22.624-9.369l137.408-137.408 137.344 137.408c5.793 5.785 13.791 9.362 22.624 9.362 17.683 0 32.018-14.335 32.018-32.018 0-8.849-3.59-16.86-9.394-22.656l-137.344-137.344 137.344-137.344c5.803-5.795 9.393-13.806 9.393-22.656 0-17.683-14.335-32.018-32.018-32.018-8.834 0-16.832 3.577-22.624 9.362l-137.344 137.408-137.408-137.408c-5.793-5.785-13.791-9.362-22.624-9.362-17.683 0-32.018 14.335-32.018 32.018 0 8.849 3.59 16.86 9.394 22.656l137.408 137.344-137.409 137.345c-5.807 5.793-9.401 13.805-9.401 22.655s3.593 16.862 9.401 22.656z" />
<glyph unicode="&#xe956;" glyph-name="backspace-fill" data-tags="backspace-fill" d="M1003.712 768c0 70.692-57.308 128-128 128v0h-453.12c-0.016 0-0.035 0-0.054 0-38.789 0-73.548-17.254-97.021-44.505l-0.14-0.167-309.952-361.728c-9.583-11.124-15.419-25.712-15.419-41.664s5.836-30.541 15.489-41.748l-0.070 0.084 309.952-361.6c23.614-27.418 58.373-44.672 97.162-44.672 0.019 0 0.038 0 0.057 0h453.117c70.692 0 128 57.308 128 128v0 640zM373.056 585.344c-5.804 5.796-9.394 13.807-9.394 22.656 0 17.683 14.335 32.018 32.018 32.018 8.834 0 16.832-3.577 22.624-9.362v0l137.408-137.408 137.344 137.408c5.792 5.785 13.79 9.362 22.624 9.362 17.683 0 32.018-14.335 32.018-32.018 0-8.849-3.59-16.86-9.393-22.656v0l-137.344-137.344 137.344-137.344c5.804-5.796 9.394-13.807 9.394-22.656 0-17.683-14.335-32.018-32.018-32.018-8.834 0-16.832 3.577-22.624 9.362v0l-137.344 137.408-137.408-137.408c-5.792-5.785-13.79-9.362-22.624-9.362-17.683 0-32.018 14.335-32.018 32.018 0 8.849 3.59 16.86 9.393 22.656v0l137.408 137.344-137.408 137.344z" />
<glyph unicode="&#xe957;" glyph-name="backspace-reverse" data-tags="backspace-reverse" d="M581.12 832h0.003c19.399-0.019 36.777-8.668 48.573-22.4l309.952-361.6-309.959-361.685c-11.737-13.662-29.14-22.315-48.564-22.315-0.001 0-0.003 0-0.004 0h-453.12c-35.346 0-64 28.654-64 64v640c0 35.346 28.654 64 64 64h453.12zM128 896c-70.692 0-128-57.308-128-128v0-640c0-70.692 57.308-128 128-128v0h453.12c0.016 0 0.035 0 0.054 0 38.789 0 73.548 17.254 97.021 44.505l0.14 0.167 309.952 361.664c9.583 11.124 15.419 25.712 15.419 41.664s-5.836 30.541-15.489 41.748l0.070-0.084-309.888 361.536c-23.617 27.494-58.423 44.8-97.272 44.8-0.003 0-0.006 0-0.009 0h-453.119zM630.656 630.656l-0.001 0.001c-5.793 5.807-13.805 9.401-22.655 9.401s-16.862-3.593-22.656-9.401l-137.344-137.408-137.344 137.408c-5.798 5.798-13.808 9.384-22.656 9.384-17.695 0-32.040-14.345-32.040-32.040 0-8.848 3.586-16.858 9.384-22.656l137.408-137.344-137.408-137.344c-5.798-5.798-9.384-13.808-9.384-22.656 0-17.695 14.345-32.040 32.040-32.040 8.848 0 16.858 3.586 22.656 9.384l137.344 137.408 137.344-137.408c5.798-5.798 13.808-9.384 22.656-9.384 17.695 0 32.040 14.345 32.040 32.040 0 8.848-3.586 16.858-9.384 22.656l-137.408 137.344 137.409 137.345c5.807 5.793 9.401 13.805 9.401 22.655s-3.593 16.862-9.401 22.656z" />
<glyph unicode="&#xe958;" glyph-name="backspace-reverse-fill" data-tags="backspace-reverse-fill" d="M0 768c0 70.692 57.308 128 128 128v0h453.12c0.016 0 0.035 0 0.054 0 38.789 0 73.548-17.254 97.021-44.505l0.14-0.167 309.952-361.664c9.583-11.124 15.419-25.712 15.419-41.664s-5.836-30.541-15.489-41.748l0.070 0.084-309.888-361.536c-23.617-27.494-58.423-44.8-97.272-44.8-0.003 0-0.006 0-0.009 0h-453.119c-70.692 0-128 57.308-128 128v0 640zM630.656 585.344c5.798 5.798 9.384 13.808 9.384 22.656 0 17.695-14.345 32.040-32.040 32.040-8.848 0-16.858-3.586-22.656-9.384v0l-137.344-137.408-137.344 137.408c-5.798 5.798-13.808 9.384-22.656 9.384-17.695 0-32.040-14.345-32.040-32.040 0-8.848 3.586-16.858 9.384-22.656v0l137.408-137.344-137.408-137.344c-5.798-5.798-9.384-13.808-9.384-22.656 0-17.695 14.345-32.040 32.040-32.040 8.848 0 16.858 3.586 22.656 9.384v0l137.344 137.408 137.344-137.408c5.798-5.798 13.808-9.384 22.656-9.384 17.695 0 32.040 14.345 32.040 32.040 0 8.848-3.586 16.858-9.384 22.656v0l-137.408 137.344 137.408 137.344z" />
<glyph unicode="&#xe959;" glyph-name="badge-4k" data-tags="badge-4k" d="M307.648 639.936c-50.304-83.008-102.656-166.336-147.648-250.624v-62.144h185.92v-71.168h71.168v71.168h46.912v61.312h-46.912v251.456h-109.44zM228.928 388.416v2.048c43.006 79.77 80.476 142.537 120.122 203.763l-7.098-11.699h3.968v-194.048h-116.992zM858.112 639.936h-83.584l-145.088-171.904h-3.648v171.968h-76.032v-384h75.968v123.2l39.36 44.736 107.52-167.936h91.392l-142.848 218.56 136.96 165.376zM896 768v0c35.346 0 64-28.654 64-64v-512c0-35.346-28.654-64-64-64h-768c-35.346 0-64 28.654-64 64v512c0 35.346 28.654 64 64 64h768zM128 832c-70.692 0-128-57.308-128-128v0-512c0-70.692 57.308-128 128-128v0h768c70.692 0 128 57.308 128 128v0 512c0 70.692-57.308 128-128 128v0h-768z" />
<glyph unicode="&#xe95a;" glyph-name="badge-4k-fill" data-tags="badge-4k-fill" d="M228.928 390.4v-1.92h116.992v194.048h-3.968c-32.548-49.527-70.018-112.294-105.205-176.491l-7.819-15.573zM128 832c-70.692 0-128-57.308-128-128v0-512c0-70.692 57.308-128 128-128v0h768c70.692 0 128 57.308 128 128v0 512c0 70.692-57.308 128-128 128v0h-768zM279.808 594.24l27.84 45.696h109.44v-251.52h46.912v-61.248h-46.912v-71.168h-71.168v71.168h-185.92v62.144c36.736 68.928 78.4 137.088 119.808 204.928zM774.528 639.936h83.584l-136.96-165.376 142.848-218.56h-91.392l-107.456 167.936-39.36-44.8v-123.136h-76.032v383.936h75.968v-171.904h3.648l145.152 171.968z" />
<glyph unicode="&#xe95b;" glyph-name="badge-8k" data-tags="badge-8k" d="M309.568 248.704c89.984 0 149.312 46.4 149.312 113.024 0 60.48-45.568 88.32-80.384 95.36v3.392c31.744 9.6 65.28 35.2 65.28 85.184 0 58.496-53.184 101.568-133.376 101.568-80.448 0-133.568-43.072-133.568-101.568 0-49.472 32.64-75.328 65.28-85.184v-3.392c-34.944-7.040-80.512-34.56-80.512-95.616 0-66.688 57.984-112.768 147.968-112.768zM310.4 481.856c-34.88 0-60.8 22.784-60.8 55.424s25.92 54.528 60.8 54.528c34.88 0 60.48-21.952 60.48-54.528 0-32.64-25.6-55.424-60.48-55.424zM310.4 303.552c-41.6 0-73.088 25.28-73.088 62.976s31.488 63.552 73.088 63.552c41.344 0 73.152-25.856 73.152-63.552s-31.808-62.976-73.152-62.976zM858.112 640h-83.584l-145.088-171.84h-3.648v171.84h-76.032v-383.872h75.968v123.072l39.36 44.736 107.456-167.872h91.456l-142.848 218.496 136.96 165.44zM896 768v0c35.346 0 64-28.654 64-64v-512c0-35.346-28.654-64-64-64h-768c-35.346 0-64 28.654-64 64v512c0 35.346 28.654 64 64 64h768zM128 832c-70.692 0-128-57.308-128-128v0-512c0-70.692 57.308-128 128-128v0h768c70.692 0 128 57.308 128 128v0 512c0 70.692-57.308 128-128 128v0h-768z" />
<glyph unicode="&#xe95c;" glyph-name="badge-8k-fill" data-tags="badge-8k-fill" d="M249.6 537.28c0-32.64 25.92-55.424 60.8-55.424s60.48 22.784 60.48 55.424-25.6 54.528-60.48 54.528c-34.88 0-60.8-21.952-60.8-54.528zM237.312 366.528c0-37.696 31.488-62.976 73.088-62.976 41.344 0 73.152 25.28 73.152 62.976s-31.808 63.552-73.152 63.552c-41.6 0-73.088-25.856-73.088-63.552zM128 832c-70.692 0-128-57.308-128-128v0-512c0-70.692 57.308-128 128-128v0h768c70.692 0 128 57.308 128 128v0 512c0 70.692-57.308 128-128 128v0h-768zM458.88 361.728c0-66.624-59.328-113.024-149.312-113.024s-147.968 46.080-147.968 112.768c0 61.056 45.568 88.576 80.448 95.616v3.392c-32.64 9.856-65.28 35.712-65.28 85.184 0 58.496 53.184 101.568 133.632 101.568 80.192 0 133.312-43.072 133.312-101.568 0-50.048-33.472-75.648-65.28-85.184v-3.392c34.88-7.040 80.448-34.88 80.448-95.36zM774.528 640h83.584l-136.96-165.376 142.848-218.56h-91.392l-107.456 167.936-39.36-44.736v-123.2h-76.032v383.936h75.968v-171.84h3.648l145.152 171.84z" />
<glyph unicode="&#xe95d;" glyph-name="badge-ad" data-tags="badge-ad" d="M896 768v0c35.346 0 64-28.654 64-64v-512c0-35.346-28.654-64-64-64h-768c-35.346 0-64 28.654-64 64v512c0 35.346 28.654 64 64 64h768zM128 832c-70.692 0-128-57.308-128-128v0-512c0-70.692 57.308-128 128-128v0h768c70.692 0 128 57.308 128 128v0 512c0 70.692-57.308 128-128 128v0h-768zM236.8 256l30.080 98.688h128.256l30.080-98.688h80.704l-128.256 383.936h-88.832l-128.832-383.936h76.8zM332.992 566.528l46.976-155.264h-97.344l46.976 155.264h3.392zM637.568 558.336c-67.776 0-112.192-48.96-112.192-130.752v-44.48c0-81.856 43.84-130.752 111.36-130.752 43.328 0 78.208 21.12 87.488 51.456h3.648v-47.808h72.832v404.16h-74.24v-151.040h-3.392c-11.52 30.4-43.52 49.28-85.504 49.28zM662.336 499.264c37.12 0 64.128-28.16 64.128-72.832v-38.528c0-48.64-25.344-76.8-62.976-76.8-38.272 0-62.208 28.736-62.208 79.872v28.992c0 50.88 23.68 79.36 61.056 79.36z" />
<glyph unicode="&#xe95e;" glyph-name="badge-ad-fill" data-tags="badge-ad-fill" d="M128 832c-70.692 0-128-57.308-128-128v0-512c0-70.692 57.308-128 128-128v0h768c70.692 0 128 57.308 128 128v0 512c0 70.692-57.308 128-128 128v0h-768zM525.376 427.52c0 81.92 44.416 130.816 112.192 130.816 41.92 0 73.984-18.816 85.504-49.216h3.392v151.040h74.24v-404.16h-72.832v47.808h-3.648c-9.28-30.336-44.16-51.456-87.488-51.456-67.52 0-111.36 48.896-111.36 130.752v44.48zM726.464 426.432v-38.528c0-48.64-25.344-76.8-62.976-76.8-38.272 0-62.208 28.672-62.208 79.872v28.992c0 50.88 23.68 79.296 61.056 79.296 37.12 0 64.128-28.096 64.128-72.832zM266.88 354.752l-30.080-98.752h-76.8l128.832 383.936h88.768l128.32-383.936h-80.704l-30.080 98.688h-128.256zM379.904 411.264h-97.28l46.976 155.264h3.392l46.976-155.264z" />
<glyph unicode="&#xe95f;" glyph-name="badge-cc" data-tags="badge-cc" d="M237.312 463.68c0 71.104 31.232 112.192 84.416 112.192 43.584 0 72.832-30.080 75.904-70.848h73.408v6.976c-3.328 75.904-65.536 128-149.888 128-102.656 0-161.152-67.2-161.152-176.064v-47.808c0-108.8 57.92-174.72 161.152-174.72 84.096 0 146.24 50.688 149.888 124.096v7.296h-73.408c-3.072-39.36-31.744-67.2-75.904-67.2-53.76 0-84.416 39.68-84.416 110.528v47.552zM630.272 463.68c0 71.104 31.232 112.192 84.352 112.192 43.648 0 72.896-30.080 75.968-70.848h73.408v6.976c-3.392 75.904-65.536 128-149.888 128-102.656 0-161.152-67.2-161.152-176.064v-47.808c0-108.8 57.92-174.72 161.152-174.72 84.096 0 146.24 50.688 149.888 124.096v7.296h-73.408c-3.072-39.36-31.808-67.2-75.968-67.2-53.696 0-84.352 39.68-84.352 110.528v47.552zM896 768v0c35.346 0 64-28.654 64-64v-512c0-35.346-28.654-64-64-64h-768c-35.346 0-64 28.654-64 64v512c0 35.346 28.654 64 64 64h768zM128 832c-70.692 0-128-57.308-128-128v0-512c0-70.692 57.308-128 128-128v0h768c70.692 0 128 57.308 128 128v0 512c0 70.692-57.308 128-128 128v0h-768z" />
<glyph unicode="&#xe960;" glyph-name="badge-cc-fill" data-tags="badge-cc-fill" d="M128 832c-70.692 0-128-57.308-128-128v0-512c0-70.692 57.308-128 128-128v0h768c70.692 0 128 57.308 128 128v0 512c0 70.692-57.308 128-128 128v0h-768zM321.728 575.872c-53.12 0-84.416-41.088-84.416-112.192v-47.552c0-70.848 30.72-110.528 84.416-110.528 44.16 0 72.832 27.84 75.904 67.2h73.408v-7.296c-3.648-73.408-65.792-124.032-149.888-124.032-103.232 0-161.152 65.792-161.152 174.656v47.808c0 108.8 58.496 176.064 161.152 176.064 84.352 0 146.56-52.032 149.888-128v-7.040h-73.408c-3.072 40.832-32.32 70.912-75.904 70.912zM714.688 575.872c-53.184 0-84.416-41.088-84.416-112.192v-47.552c0-70.848 30.72-110.528 84.352-110.528 44.16 0 72.896 27.84 75.968 67.2h73.408v-7.296c-3.648-73.408-65.792-124.032-149.888-124.032-103.232 0-161.152 65.792-161.152 174.656v47.808c0 108.8 58.496 176.064 161.152 176.064 84.352 0 146.56-52.032 149.888-128v-7.040h-73.408c-3.072 40.832-32.32 70.912-75.968 70.912z" />
<glyph unicode="&#xe961;" glyph-name="badge-hd" data-tags="badge-hd" d="M896 768v0c35.346 0 64-28.654 64-64v-512c0-35.346-28.654-64-64-64h-768c-35.346 0-64 28.654-64 64v512c0 35.346 28.654 64 64 64h768zM128 832c-70.692 0-128-57.308-128-128v0-512c0-70.692 57.308-128 128-128v0h768c70.692 0 128 57.308 128 128v0 512c0 70.692-57.308 128-128 128v0h-768zM473.344 256v383.936h-75.968v-156.16h-161.408v156.224h-75.968v-384h75.968v164.48h161.408v-164.48h75.968zM544 639.936v-383.936h140.032c115.904 0 171.84 70.848 171.84 192.96 0 121.216-55.040 190.976-171.776 190.976h-140.096zM619.968 578.048h53.952c71.168 0 103.808-43.904 103.808-130.56 0-86.592-32.32-129.28-103.808-129.28h-53.952v259.84z" />
<glyph unicode="&#xe962;" glyph-name="badge-hd-fill" data-tags="badge-hd-fill" d="M673.92 578.048h-53.952v-259.84h53.952c71.488 0 103.808 42.688 103.808 129.28 0 86.656-32.64 130.56-103.808 130.56zM128 832c-70.692 0-128-57.308-128-128v0-512c0-70.692 57.308-128 128-128v0h768c70.692 0 128 57.308 128 128v0 512c0 70.692-57.308 128-128 128v0h-768zM473.344 639.936v-383.936h-75.968v164.48h-161.408v-164.48h-75.968v383.936h75.968v-156.16h161.408v156.224h75.968zM544 256v383.936h140.032c116.736 0 171.84-69.76 171.84-190.976 0-122.112-55.872-192.96-171.712-192.96h-140.16z" />
<glyph unicode="&#xe963;" glyph-name="badge-tm" data-tags="badge-tm" d="M338.88 256v320.32h109.12v63.68h-294.208v-63.616h108.864v-320.384h76.16zM556.288 256v255.36h3.712l91.392-207.296h49.472l90.88 207.36h3.648v-255.424h68.608v383.936h-76.8l-109.44-249.216h-2.496l-109.44 249.216h-77.248v-383.936h67.84zM896 768v0c35.346 0 64-28.654 64-64v-512c0-35.346-28.654-64-64-64h-768c-35.346 0-64 28.654-64 64v512c0 35.346 28.654 64 64 64h768zM128 832c-70.692 0-128-57.308-128-128v0-512c0-70.692 57.308-128 128-128v0h768c70.692 0 128 57.308 128 128v0 512c0 70.692-57.308 128-128 128v0h-768z" />
<glyph unicode="&#xe964;" glyph-name="badge-tm-fill" data-tags="badge-tm-fill" d="M128 832c-70.692 0-128-57.308-128-128v0-512c0-70.692 57.308-128 128-128v0h768c70.692 0 128 57.308 128 128v0 512c0 70.692-57.308 128-128 128v0h-768zM338.88 576.32v-320.32h-76.224v320.32h-108.8v63.68h294.144v-63.616h-109.12zM556.288 511.36v-255.36h-67.776v383.936h77.376l109.44-249.216h2.496l109.44 249.216h76.736v-383.936h-68.608v255.36h-3.648l-90.88-207.296h-49.472l-91.392 207.424h-3.712z" />
<glyph unicode="&#xe965;" glyph-name="badge-vo" data-tags="badge-vo" d="M288.512 256h91.456l127.36 383.936h-84.288l-85.312-301.248h-3.648l-86.080 301.248h-88l128.512-383.936zM864 423.040v49.28c0 108.544-61.568 174.912-164.224 174.912s-164.544-65.856-164.544-174.976v-49.216c0-108.224 61.888-174.336 164.48-174.336 102.72 0 164.288 66.112 164.288 174.336zM786.944 472.832v-50.048c0-73.984-36.544-110.848-87.168-110.848-50.944 0-87.232 36.864-87.232 110.848v50.048c0 73.984 36.288 111.104 87.232 111.104 50.56 0 87.168-37.12 87.168-111.104zM896 768v0c35.346 0 64-28.654 64-64v-512c0-35.346-28.654-64-64-64h-768c-35.346 0-64 28.654-64 64v512c0 35.346 28.654 64 64 64h768zM128 832c-70.692 0-128-57.308-128-128v0-512c0-70.692 57.308-128 128-128v0h768c70.692 0 128 57.308 128 128v0 512c0 70.692-57.308 128-128 128v0h-768z" />
<glyph unicode="&#xe966;" glyph-name="badge-vo-fill" data-tags="badge-vo-fill" d="M786.944 422.784v50.048c0 73.984-36.544 111.104-87.168 111.104-50.944 0-87.232-37.12-87.232-111.104v-50.048c0-73.984 36.288-110.848 87.232-110.848 50.56 0 87.168 36.864 87.168 110.848zM128 832c-70.692 0-128-57.308-128-128v0-512c0-70.692 57.308-128 128-128v0h768c70.692 0 128 57.308 128 128v0 512c0 70.692-57.308 128-128 128v0h-768zM864 472.32v-49.28c0-108.224-61.568-174.336-164.224-174.336s-164.544 66.112-164.544 174.336v49.28c0 109.056 61.888 174.912 164.48 174.912 102.72 0 164.288-66.368 164.288-174.976zM379.968 256h-91.456l-128.512 383.936h88l86.080-301.248h3.648l85.312 301.248h84.352l-127.424-383.936z" />
<glyph unicode="&#xe967;" glyph-name="bag" data-tags="bag" d="M512 896v0c88.366 0 160-71.634 160-160v-32h-320v32c0 88.366 71.634 160 160 160zM736 704h224v-640c0-70.692-57.308-128-128-128h-640c-70.692 0-128 57.308-128 128v640h224v32c0 123.712 100.288 224 224 224s224-100.288 224-224v-32zM128 640v-576c0-35.346 28.654-64 64-64v0h640c35.346 0 64 28.654 64 64v0 576h-768z" />
<glyph unicode="&#xe968;" glyph-name="bag-check" data-tags="bag-check" d="M512 896v0c88.366 0 160-71.634 160-160v-32h-320v32c0 88.366 71.634 160 160 160zM736 704h224v-640c0-70.692-57.308-128-128-128h-640c-70.692 0-128 57.308-128 128v640h224v32c0 123.712 100.288 224 224 224s224-100.288 224-224v-32zM128 640v-576c0-35.346 28.654-64 64-64v0h640c35.346 0 64 28.654 64 64v0 576h-768zM694.656 438.656c5.808-5.794 9.401-13.805 9.401-22.656s-3.593-16.862-9.401-22.655l-192.001-192.001c-5.794-5.808-13.805-9.401-22.656-9.401s-16.862 3.593-22.655 9.401l-96.001 96.001c-5.798 5.798-9.384 13.808-9.384 22.656 0 17.695 14.345 32.040 32.040 32.040 8.848 0 16.858-3.586 22.656-9.384v0l73.344-73.408 169.344 169.408c5.794 5.808 13.805 9.401 22.656 9.401s16.862-3.593 22.655-9.401l0.001-0.001z" />
<glyph unicode="&#xe969;" glyph-name="bag-check-fill" data-tags="bag-check-fill" d="M352 736v-32h320v32c0 88.366-71.634 160-160 160s-160-71.634-160-160zM736 736v-32h224v-640c0-70.692-57.308-128-128-128v0h-640c-70.692 0-128 57.308-128 128v0 640h224v32c0 123.712 100.288 224 224 224s224-100.288 224-224v0zM694.656 393.344c5.798 5.798 9.384 13.808 9.384 22.656 0 17.695-14.345 32.040-32.040 32.040-8.848 0-16.858-3.586-22.656-9.384v0l-169.344-169.408-73.344 73.408c-5.798 5.798-13.808 9.384-22.656 9.384-17.695 0-32.040-14.345-32.040-32.040 0-8.848 3.586-16.858 9.384-22.656v0l96-96c5.794-5.808 13.805-9.401 22.656-9.401s16.862 3.593 22.655 9.401l192.001 192.001z" />
<glyph unicode="&#xe96a;" glyph-name="bag-dash" data-tags="bag-dash" d="M512 896v0c88.366 0 160-71.634 160-160v-32h-320v32c0 88.366 71.634 160 160 160zM736 704h224v-640c0-70.692-57.308-128-128-128h-640c-70.692 0-128 57.308-128 128v640h224v32c0 123.712 100.288 224 224 224s224-100.288 224-224v-32zM128 640v-576c0-35.346 28.654-64 64-64v0h640c35.346 0 64 28.654 64 64v0 576h-768zM352 320c0 17.673 14.327 32 32 32v0h256c17.673 0 32-14.327 32-32s-14.327-32-32-32v0h-256c-17.673 0-32 14.327-32 32v0z" />
<glyph unicode="&#xe96b;" glyph-name="bag-dash-fill" data-tags="bag-dash-fill" d="M352 736v-32h320v32c0 88.366-71.634 160-160 160s-160-71.634-160-160zM736 736v-32h224v-640c0-70.692-57.308-128-128-128v0h-640c-70.692 0-128 57.308-128 128v0 640h224v32c0 123.712 100.288 224 224 224s224-100.288 224-224v0zM384 352c-17.673 0-32-14.327-32-32s14.327-32 32-32v0h256c17.673 0 32 14.327 32 32s-14.327 32-32 32v0h-256z" />
<glyph unicode="&#xe96c;" glyph-name="bag-fill" data-tags="bag-fill" d="M512 896v0c88.366 0 160-71.634 160-160v-32h-320v32c0 88.366 71.634 160 160 160zM736 704v32c0 123.712-100.288 224-224 224s-224-100.288-224-224v0-32h-224v-640c0-70.692 57.308-128 128-128v0h640c70.692 0 128 57.308 128 128v0 640h-224z" />
<glyph unicode="&#xe96d;" glyph-name="bag-plus" data-tags="bag-plus" d="M512 896v0c88.366 0 160-71.634 160-160v-32h-320v32c0 88.366 71.634 160 160 160zM736 704h224v-640c0-70.692-57.308-128-128-128h-640c-70.692 0-128 57.308-128 128v640h224v32c0 123.712 100.288 224 224 224s224-100.288 224-224v-32zM128 640v-576c0-35.346 28.654-64 64-64v0h640c35.346 0 64 28.654 64 64v0 576h-768zM512 480c17.673 0 32-14.327 32-32v0-96h96c17.673 0 32-14.327 32-32s-14.327-32-32-32v0h-96v-96c0-17.673-14.327-32-32-32s-32 14.327-32 32v0 96h-96c-17.673 0-32 14.327-32 32s14.327 32 32 32v0h96v96c0 17.673 14.327 32 32 32v0z" />
<glyph unicode="&#xe96e;" glyph-name="bag-plus-fill" data-tags="bag-plus-fill" d="M352 736v-32h320v32c0 88.366-71.634 160-160 160s-160-71.634-160-160zM736 736v-32h224v-640c0-70.692-57.308-128-128-128v0h-640c-70.692 0-128 57.308-128 128v0 640h224v32c0 123.712 100.288 224 224 224s224-100.288 224-224v0zM544 448c0 17.673-14.327 32-32 32s-32-14.327-32-32v0-96h-96c-17.673 0-32-14.327-32-32s14.327-32 32-32v0h96v-96c0-17.673 14.327-32 32-32s32 14.327 32 32v0 96h96c17.673 0 32 14.327 32 32s-14.327 32-32 32v0h-96v96z" />
<glyph unicode="&#xe96f;" glyph-name="bag-x" data-tags="bag-x" d="M512 896v0c88.366 0 160-71.634 160-160v-32h-320v32c0 88.366 71.634 160 160 160zM736 704h224v-640c0-70.692-57.308-128-128-128h-640c-70.692 0-128 57.308-128 128v640h224v32c0 123.712 100.288 224 224 224s224-100.288 224-224v-32zM128 640v-576c0-35.346 28.654-64 64-64v0h640c35.346 0 64 28.654 64 64v0 576h-768zM393.344 438.656c5.794 5.808 13.805 9.401 22.656 9.401s16.862-3.593 22.655-9.401l73.345-73.409 73.344 73.408c5.798 5.798 13.808 9.384 22.656 9.384 17.695 0 32.040-14.345 32.040-32.040 0-8.848-3.586-16.858-9.384-22.656v0l-73.408-73.344 73.408-73.344c5.798-5.798 9.384-13.808 9.384-22.656 0-17.695-14.345-32.040-32.040-32.040-8.848 0-16.858 3.586-22.656 9.384v0l-73.344 73.408-73.344-73.408c-5.798-5.798-13.808-9.384-22.656-9.384-17.695 0-32.040 14.345-32.040 32.040 0 8.848 3.586 16.858 9.384 22.656v0l73.408 73.344-73.408 73.344c-5.808 5.794-9.401 13.805-9.401 22.656s3.593 16.862 9.401 22.655l0.001 0.001z" />
<glyph unicode="&#xe970;" glyph-name="bag-x-fill" data-tags="bag-x-fill" d="M352 736v-32h320v32c0 88.366-71.634 160-160 160s-160-71.634-160-160zM736 736v-32h224v-640c0-70.692-57.308-128-128-128v0h-640c-70.692 0-128 57.308-128 128v0 640h224v32c0 123.712 100.288 224 224 224s224-100.288 224-224v0zM438.656 438.656c-5.798 5.798-13.808 9.384-22.656 9.384-17.695 0-32.040-14.345-32.040-32.040 0-8.848 3.586-16.858 9.384-22.656v0l73.408-73.344-73.408-73.344c-5.798-5.798-9.384-13.808-9.384-22.656 0-17.695 14.345-32.040 32.040-32.040 8.848 0 16.858 3.586 22.656 9.384v0l73.344 73.408 73.344-73.408c5.798-5.798 13.808-9.384 22.656-9.384 17.695 0 32.040 14.345 32.040 32.040 0 8.848-3.586 16.858-9.384 22.656v0l-73.408 73.344 73.408 73.344c5.798 5.798 9.384 13.808 9.384 22.656 0 17.695-14.345 32.040-32.040 32.040-8.848 0-16.858-3.586-22.656-9.384v0l-73.344-73.408-73.344 73.408z" />
<glyph unicode="&#xe971;" glyph-name="bar-chart" data-tags="bar-chart" d="M256 256h-128v-192h128v192zM576 512h-128v-448h128v448zM896 832v-768h-128v768h128zM768 896c-35.346 0-64-28.654-64-64v0-768c0-35.346 28.654-64 64-64v0h128c35.346 0 64 28.654 64 64v0 768c0 35.346-28.654 64-64 64v0h-128zM384 512c0 35.346 28.654 64 64 64v0h128c35.346 0 64-28.654 64-64v0-448c0-35.346-28.654-64-64-64v0h-128c-35.346 0-64 28.654-64 64v0 448zM64 256c0 35.346 28.654 64 64 64v0h128c35.346 0 64-28.654 64-64v0-192c0-35.346-28.654-64-64-64v0h-128c-35.346 0-64 28.654-64 64v0 192z" />
<glyph unicode="&#xe972;" glyph-name="bar-chart-fill" data-tags="bar-chart-fill" d="M128 320h128c35.346 0 64-28.654 64-64v-192c0-35.346-28.654-64-64-64h-128c-35.346 0-64 28.654-64 64v192c0 35.346 28.654 64 64 64zM448 576h128c35.346 0 64-28.654 64-64v-448c0-35.346-28.654-64-64-64h-128c-35.346 0-64 28.654-64 64v448c0 35.346 28.654 64 64 64zM768 896h128c35.346 0 64-28.654 64-64v-768c0-35.346-28.654-64-64-64h-128c-35.346 0-64 28.654-64 64v768c0 35.346 28.654 64 64 64z" />
<glyph unicode="&#xe973;" glyph-name="bar-chart-line" data-tags="bar-chart-line" d="M704 832c0 35.346 28.654 64 64 64v0h128c35.346 0 64-28.654 64-64v0-768h32c17.673 0 32-14.327 32-32s-14.327-32-32-32v0h-960c-17.673 0-32 14.327-32 32s14.327 32 32 32v0h32v192c0 35.346 28.654 64 64 64v0h128c35.346 0 64-28.654 64-64v0-192h64v448c0 35.346 28.654 64 64 64v0h128c35.346 0 64-28.654 64-64v0-448h64v768zM768 64h128v768h-128v-768zM576 64v448h-128v-448h128zM256 64v192h-128v-192h128z" />
<glyph unicode="&#xe974;" glyph-name="bar-chart-line-fill" data-tags="bar-chart-line-fill" d="M704 832c0 35.346 28.654 64 64 64v0h128c35.346 0 64-28.654 64-64v0-768h32c17.673 0 32-14.327 32-32s-14.327-32-32-32v0h-960c-17.673 0-32 14.327-32 32s14.327 32 32 32v0h32v192c0 35.346 28.654 64 64 64v0h128c35.346 0 64-28.654 64-64v0-192h64v448c0 35.346 28.654 64 64 64v0h128c35.346 0 64-28.654 64-64v0-448h64v768z" />
<glyph unicode="&#xe975;" glyph-name="bar-chart-steps" data-tags="bar-chart-steps" d="M32 960c17.673 0 32-14.327 32-32v0-960c0-17.673-14.327-32-32-32s-32 14.327-32 32v0 960c0 17.673 14.327 32 32 32v0zM160 896h256c17.673 0 32-14.327 32-32v-64c0-17.673-14.327-32-32-32h-256c-17.673 0-32 14.327-32 32v64c0 17.673 14.327 32 32 32zM288 640h448c17.673 0 32-14.327 32-32v-64c0-17.673-14.327-32-32-32h-448c-17.673 0-32 14.327-32 32v64c0 17.673 14.327 32 32 32zM384 352c0 17.673 14.327 32 32 32v0h384c17.673 0 32-14.327 32-32v0-64c0-17.673-14.327-32-32-32v0h-384c-17.673 0-32 14.327-32 32v0 64zM512 96c0 17.673 14.327 32 32 32v0h448c17.673 0 32-14.327 32-32v0-64c0-17.673-14.327-32-32-32v0h-448c-17.673 0-32 14.327-32 32v0 64z" />
<glyph unicode="&#xe976;" glyph-name="basket" data-tags="basket" d="M368.448 891.456c9.385-5.691 15.56-15.851 15.56-27.454 0-6.075-1.693-11.754-4.632-16.592l0.080 0.142-162.944-271.552h590.976l-163.008 271.552c-2.858 4.696-4.55 10.374-4.55 16.448 0 17.676 14.329 32.006 32.006 32.006 11.603 0 21.763-6.174 27.376-15.416l0.080-0.142 182.72-304.448h77.888c35.346 0 64-28.654 64-64v0-64c0-35.346-28.654-64-64-64v0-288c0-88.366-71.634-160-160-160v0h-576c-88.366 0-160 71.634-160 160v0 288c-35.346 0-64 28.654-64 64v0 64c0 35.346 28.654 64 64 64v0h77.888l182.592 304.448c5.691 9.385 15.851 15.56 27.454 15.56 6.075 0 11.754-1.693 16.592-4.632l-0.142 0.080zM128 384v-288c0-53.019 42.981-96 96-96v0h576c53.019 0 96 42.981 96 96v0 288h-768zM64 512v-64h896v64h-896zM256 320v0c-17.673 0-32-14.327-32-32v-192c0-17.673 14.327-32 32-32s32 14.327 32 32v192c0 17.673-14.327 32-32 32zM384 320v0c-17.673 0-32-14.327-32-32v-192c0-17.673 14.327-32 32-32s32 14.327 32 32v192c0 17.673-14.327 32-32 32zM512 320v0c-17.673 0-32-14.327-32-32v-192c0-17.673 14.327-32 32-32s32 14.327 32 32v192c0 17.673-14.327 32-32 32zM640 320v0c-17.673 0-32-14.327-32-32v-192c0-17.673 14.327-32 32-32s32 14.327 32 32v192c0 17.673-14.327 32-32 32zM768 320v0c-17.673 0-32-14.327-32-32v-192c0-17.673 14.327-32 32-32s32 14.327 32 32v192c0 17.673-14.327 32-32 32z" />
<glyph unicode="&#xe977;" glyph-name="basket2" data-tags="basket2" d="M256 320c0 35.346 28.654 64 64 64s64-28.654 64-64v0-128c0-35.346-28.654-64-64-64s-64 28.654-64 64v0 128zM448 320c0 35.346 28.654 64 64 64s64-28.654 64-64v0-128c0-35.346-28.654-64-64-64s-64 28.654-64 64v0 128zM640 320c0 35.346 28.654 64 64 64s64-28.654 64-64v0-128c0-35.346-28.654-64-64-64s-64 28.654-64 64v0 128zM368.448 891.456c9.385-5.691 15.56-15.851 15.56-27.454 0-6.075-1.693-11.754-4.632-16.592l0.080 0.142-162.944-271.552h590.976l-163.008 271.552c-2.858 4.696-4.55 10.374-4.55 16.448 0 17.676 14.329 32.006 32.006 32.006 11.603 0 21.763-6.174 27.376-15.416l0.080-0.142 182.72-304.448h109.888c17.673 0 32-14.327 32-32v0-64c0-17.673-14.327-32-32-32v0h-39.872l-118.016-413.184c-5.925-20.265-24.34-34.816-46.154-34.816-0.019 0-0.038 0-0.057 0h-551.741c-0.016 0-0.035 0-0.054 0-21.814 0-40.229 14.551-46.069 34.477l-0.085 0.339-118.080 413.184h-39.872c-17.673 0-32 14.327-32 32v0 64c0 17.673 14.327 32 32 32v0h109.888l182.592 304.448c5.691 9.385 15.851 15.56 27.454 15.56 6.075 0 11.754-1.693 16.592-4.632l-0.142 0.080zM138.432 448l109.696-384h527.744l109.696 384h-747.136z" />
<glyph unicode="&#xe978;" glyph-name="basket2-fill" data-tags="basket2-fill" d="M379.456 847.552c2.858 4.696 4.55 10.374 4.55 16.448 0 17.676-14.329 32.006-32.006 32.006-11.603 0-21.763-6.174-27.376-15.416l-0.080-0.142-182.656-304.448h-109.888c-17.673 0-32-14.327-32-32v0-64c0-17.673 14.327-32 32-32v0h39.872l118.016-413.184c5.925-20.265 24.34-34.816 46.154-34.816 0.042 0 0.083 0 0.125 0h551.802c0.016 0 0.035 0 0.054 0 21.814 0 40.229 14.551 46.069 34.477l0.085 0.339 117.952 413.184h39.872c17.673 0 32 14.327 32 32v0 64c0 17.673-14.327 32-32 32v0h-109.888l-182.592 304.448c-5.693 9.384-15.853 15.558-27.456 15.558-17.676 0-32.006-14.329-32.006-32.006 0-6.074 1.692-11.752 4.63-16.59l-0.080 0.142 162.88-271.552h-590.976l163.008 271.552zM256 320c0 35.346 28.654 64 64 64s64-28.654 64-64v0-128c0-35.346-28.654-64-64-64s-64 28.654-64 64v0 128zM448 320c0 35.346 28.654 64 64 64s64-28.654 64-64v0-128c0-35.346-28.654-64-64-64s-64 28.654-64 64v0 128zM704 384v0c35.346 0 64-28.654 64-64v-128c0-35.346-28.654-64-64-64s-64 28.654-64 64v128c0 35.346 28.654 64 64 64z" />
<glyph unicode="&#xe979;" glyph-name="basket3" data-tags="basket3" d="M368.384 891.456l0.142-0.080c-4.838 2.939-10.517 4.632-16.592 4.632-11.603 0-21.763-6.175-27.454-15.56l-182.592-304.448h-109.888c-17.673 0-32-14.327-32-32v-64c0-17.673 14.327-32 32-32h960c17.673 0 32 14.327 32 32v64c0 17.673-14.327 32-32 32h-109.888l-182.8 304.59c-5.613 9.242-15.773 15.416-27.376 15.416-17.676 0-32.006-14.329-32.006-32.006 0-6.074 1.692-11.752 4.55-16.448l163.008-271.552h-590.976l162.864 271.41c2.939 4.838 4.632 10.517 4.632 16.592 0 11.603-6.175 21.763-15.56 27.454zM217.28 0h589.44l94.656 384h62.208l-97.477-411.594c-5.186-20.908-24.078-36.406-46.59-36.406-0.021 0-0.042 0-0.060 0h-614.784c-22.51 0.002-41.401 15.499-46.656 36.736l-97.6 411.264h62.080l94.72-384z" />
<glyph unicode="&#xe97a;" glyph-name="basket3-fill" data-tags="basket3-fill" d="M368.448 891.456c9.385-5.691 15.56-15.851 15.56-27.454 0-6.075-1.693-11.754-4.632-16.592l0.080 0.142-162.944-271.552h590.976l-163.008 271.552c-2.858 4.696-4.55 10.374-4.55 16.448 0 17.676 14.329 32.006 32.006 32.006 11.603 0 21.763-6.174 27.376-15.416l0.080-0.142 182.72-304.448h109.888c17.673 0 32-14.327 32-32v0-64c0-17.673-14.327-32-32-32v0h-960c-17.673 0-32 14.327-32 32v0 64c0 17.673 14.327 32 32 32v0h109.888l182.592 304.448c5.691 9.385 15.851 15.56 27.454 15.56 6.075 0 11.754-1.693 16.592-4.632l-0.142 0.080zM157.952-27.264l-97.6 411.264h903.296l-97.6-411.264c-5.255-21.237-24.146-36.734-46.656-36.736h-614.784c-0.018 0-0.039 0-0.060 0-22.512 0-41.404 15.498-46.59 36.406l-0.069 0.33z" />
<glyph unicode="&#xe97b;" glyph-name="basket-fill" data-tags="basket-fill" d="M324.544 880.448c5.693 9.384 15.853 15.558 27.456 15.558 17.676 0 32.006-14.329 32.006-32.006 0-6.074-1.692-11.752-4.63-16.59l0.080 0.142-162.944-271.552h590.976l-163.008 271.552c-2.858 4.696-4.55 10.374-4.55 16.448 0 17.676 14.329 32.006 32.006 32.006 11.603 0 21.763-6.174 27.376-15.416l0.080-0.142 182.72-304.448h109.888c17.673 0 32-14.327 32-32v0-128c0-17.673-14.327-32-32-32v0h-32v-320c0-70.692-57.308-128-128-128v0h-640c-70.692 0-128 57.308-128 128v0 320h-32c-17.673 0-32 14.327-32 32v0 128c0 17.673 14.327 32 32 32v0h109.888l182.592 304.448zM224 288c0 17.673-14.327 32-32 32s-32-14.327-32-32v0-192c0-17.673 14.327-32 32-32s32 14.327 32 32v0 192zM384 288c0 17.673-14.327 32-32 32s-32-14.327-32-32v0-192c0-17.673 14.327-32 32-32s32 14.327 32 32v0 192zM544 288c0 17.673-14.327 32-32 32s-32-14.327-32-32v0-192c0-17.673 14.327-32 32-32s32 14.327 32 32v0 192zM704 288c0 17.673-14.327 32-32 32s-32-14.327-32-32v0-192c0-17.673 14.327-32 32-32s32 14.327 32 32v0 192zM864 288c0 17.673-14.327 32-32 32s-32-14.327-32-32v0-192c0-17.673 14.327-32 32-32s32 14.327 32 32v0 192z" />
<glyph unicode="&#xe97c;" glyph-name="battery" data-tags="battery" d="M768 640v0c35.346 0 64-28.654 64-64v-256c0-35.346-28.654-64-64-64h-640c-35.346 0-64 28.654-64 64v256c0 35.346 28.654 64 64 64h640zM128 704c-70.692 0-128-57.308-128-128v0-256c0-70.692 57.308-128 128-128v0h640c70.692 0 128 57.308 128 128v0 256c0 70.692-57.308 128-128 128v0h-640zM928 352c53.019 0 96 42.981 96 96s-42.981 96-96 96v0-192z" />
<glyph unicode="&#xe97d;" glyph-name="battery-charging" data-tags="battery-charging" d="M928 352c53.019 0 96 42.981 96 96s-42.981 96-96 96v0-192zM613.44 795.648c9.574-5.649 15.896-15.913 15.896-27.653 0-3.379-0.524-6.636-1.495-9.694l0.062 0.227-72.576-235.776h127.36c0.004 0 0.008 0 0.013 0 17.673 0 32-14.327 32-32 0-8.506-3.318-16.236-8.731-21.967l0.014 0.015-341.376-362.688c-5.851-6.211-14.129-10.078-23.311-10.078-17.673 0-32 14.327-32 32 0 3.368 0.52 6.615 1.485 9.665l-0.062-0.227 72.64 235.84h-127.36c-0.004 0-0.008 0-0.013 0-17.673 0-32 14.327-32 32 0 8.506 3.318 16.236 8.731 21.967l-0.014-0.015 341.312 362.688c5.852 6.224 14.14 10.1 23.332 10.1 5.928 0 11.48-1.612 16.241-4.422l-0.149 0.081zM405.248 704l-60.224-64h-217.024c-35.346 0-64-28.654-64-64v-256c0-35.346 28.654-64 64-64h152.256l-19.648-64h-132.608c-70.692 0-128 57.308-128 128v256c0 70.692 57.308 128 128 128h277.248zM284.8 576l-98.643-104.848c-16.198-17.187-26.125-40.349-26.125-65.829 0-36.949 20.874-69.022 52-85.323h-84.032v256h156.8zM347.264 256h67.008l-1.792-5.76 5.44 5.76h87.744l-46.72-49.664h-0.064l-13.44-14.336h-117.888l19.712 64zM433.92 320l23.36 75.904-0.062-0.227c0.959 3.041 1.476 6.277 1.476 9.635 0 17.673-14.327 32-32 32-0.002 0-0.004 0-0.006 0h-96.64l130.496 138.688h-87.872l-139.954-148.721c-5.413-5.731-8.731-13.462-8.731-21.967 0-17.673 14.327-32 32-32 0.004 0 0.009 0 0.013 0h127.36l-16.448-53.312h67.008zM478.080 320l130.56 138.688h-96.64c-0.002 0-0.004 0-0.007 0-17.673 0-32 14.327-32 32 0 3.357 0.517 6.594 1.414 9.408l12.736 41.344 10.624 34.56h66.944l-16.384-53.312h127.359c0.004 0 0.009 0 0.013 0 17.673 0 32-14.327 32-32 0-8.506-3.318-16.236-8.717-21.952l-139.968-148.736h-87.936zM524.48 640l1.792 5.76-5.44-5.76h-87.936l60.288 64h117.888l-19.712-64h-66.88zM678.080 704h89.92c70.692 0 128-57.308 128-128v-256c0-70.692-57.308-128-128-128h-234.624l60.288 64h174.336c35.346 0 64 28.654 64 64v256c0 35.346-28.654 64-64 64h-109.632l19.712 64zM653.888 320l98.643 104.848c5.993 6.358 11.127 13.534 15.469 21.872v-126.72h-114.112zM768 534.656l-0.252 0.527c-9.071 17.301-23.264 31.494-41.092 40.817h41.344v-41.344z" />
<glyph unicode="&#xe97e;" glyph-name="battery-full" data-tags="battery-full" d="M768 640v0c35.346 0 64-28.654 64-64v-256c0-35.346-28.654-64-64-64h-640c-35.346 0-64 28.654-64 64v256c0 35.346 28.654 64 64 64h640zM128 704c-70.692 0-128-57.308-128-128v0-256c0-70.692 57.308-128 128-128v0h640c70.692 0 128 57.308 128 128v0 256c0 70.692-57.308 128-128 128v0h-640zM128 576h640v-256h-640v256zM928 352c53.019 0 96 42.981 96 96s-42.981 96-96 96v0-192z" />
<glyph unicode="&#xe97f;" glyph-name="battery-half" data-tags="battery-half" d="M768 640v0c35.346 0 64-28.654 64-64v-256c0-35.346-28.654-64-64-64h-640c-35.346 0-64 28.654-64 64v256c0 35.346 28.654 64 64 64h640zM128 704c-70.692 0-128-57.308-128-128v0-256c0-70.692 57.308-128 128-128v0h640c70.692 0 128 57.308 128 128v0 256c0 70.692-57.308 128-128 128v0h-640zM128 576h320v-256h-320v256zM928 352c53.019 0 96 42.981 96 96s-42.981 96-96 96v0-192z" />
<glyph unicode="&#xe980;" glyph-name="bell" data-tags="bell" d="M512-64c70.692 0 128 57.308 128 128v0h-256c0-70.692 57.308-128 128-128v0zM512 837.248l-51.008-10.304c-117.78-24.627-204.978-127.601-204.992-250.943v-0.001c0-40.192-8.576-140.608-29.376-239.488-10.24-49.088-24.064-100.224-42.432-144.512h655.616c-18.368 44.288-32.128 95.36-42.432 144.512-20.8 98.88-29.376 199.296-29.376 239.488-0.046 123.317-87.233 226.257-203.325 250.588l-1.667 0.292-51.008 10.432zM910.080 192c14.272-28.608 30.784-51.264 49.92-64h-896c19.136 12.736 35.648 35.392 49.92 64 57.6 115.2 78.080 327.68 78.080 384 0 154.88 110.080 284.16 256.32 313.664-0.204 1.917-0.32 4.141-0.32 6.392 0 35.346 28.654 64 64 64s64-28.654 64-64c0-2.251-0.116-4.475-0.343-6.666l0.023 0.274c147.26-30.739 256.3-159.465 256.32-313.661v-0.003c0-56.32 20.48-268.8 78.080-384z" />
<glyph unicode="&#xe981;" glyph-name="bell-fill" data-tags="bell-fill" d="M512-64c70.692 0 128 57.308 128 128v0h-256c0-70.692 57.308-128 128-128v0zM575.68 889.664c0.204 1.917 0.32 4.141 0.32 6.392 0 35.346-28.654 64-64 64s-64-28.654-64-64c0-2.251 0.116-4.475 0.343-6.666l-0.023 0.274c-147.26-30.739-256.3-159.465-256.32-313.661v-0.003c0-70.272-32-384-128-448h896c-96 64-128 377.728-128 448 0 154.88-110.080 284.16-256.32 313.664z" />
<glyph unicode="&#xe982;" glyph-name="bezier" data-tags="bezier" d="M0 288c0 53.019 42.981 96 96 96v0h64c53.019 0 96-42.981 96-96v0-64c0-53.019-42.981-96-96-96v0h-64c-53.019 0-96 42.981-96 96v0 64zM96 320c-17.673 0-32-14.327-32-32v0-64c0-17.673 14.327-32 32-32v0h64c17.673 0 32 14.327 32 32v0 64c0 17.673-14.327 32-32 32v0h-64zM768 288c0 53.019 42.981 96 96 96v0h64c53.019 0 96-42.981 96-96v0-64c0-53.019-42.981-96-96-96v0h-64c-53.019 0-96 42.981-96 96v0 64zM864 320c-17.673 0-32-14.327-32-32v0-64c0-17.673 14.327-32 32-32v0h64c17.673 0 32 14.327 32 32v0 64c0 17.673-14.327 32-32 32v0h-64zM384 672c0 53.019 42.981 96 96 96v0h64c53.019 0 96-42.981 96-96v0-64c0-53.019-42.981-96-96-96v0h-64c-53.019 0-96 42.981-96 96v0 64zM480 704c-17.673 0-32-14.327-32-32v0-64c0-17.673 14.327-32 32-32v0h64c17.673 0 32 14.327 32 32v0 64c0 17.673-14.327 32-32 32v0h-64zM384 672h-264.576c-11.272 19.265-31.861 32-55.426 32-35.346 0-64-28.654-64-64s28.654-64 64-64c23.564 0 44.154 12.735 55.262 31.698l0.164 0.302h170.752c-81.506-52.031-142.806-129.497-173.232-221.055l-0.848-2.945h43.904c7.872 0 15.616-0.96 22.912-2.752 36.648 94.123 109.717 167.192 201.437 203.014l2.403 0.826c-1.748 6.86-2.752 14.735-2.752 22.845 0 0.024 0 0.047 0 0.071v-0.004 64zM637.248 585.088c1.749 6.853 2.752 14.72 2.752 22.821 0 0.032 0 0.064 0 0.096v-0.005 64h264.576c11.272 19.265 31.861 32 55.426 32 35.346 0 64-28.654 64-64s-28.654-64-64-64c-23.564 0-44.154 12.735-55.262 31.698l-0.164 0.302h-170.752c81.506-52.031 142.806-129.497 173.232-221.055l0.848-2.945h-43.904c-7.872 0-15.552-0.96-22.912-2.752-36.648 94.123-109.717 167.192-201.437 203.014l-2.403 0.826z" />
<glyph unicode="&#xe983;" glyph-name="bezier2" data-tags="bezier2" d="M64 800c0 53.019 42.981 96 96 96v0h64c53.019 0 96-42.981 96-96v0h264.576c11.272 19.265 31.861 32 55.426 32 35.346 0 64-28.654 64-64s-28.654-64-64-64c-23.564 0-44.154 12.735-55.262 31.698l-0.164 0.302h-128.64c11.52-11.52 21.76-24.384 30.976-38.72 40.832-63.488 57.088-150.656 57.088-249.28 0-127.552 16.448-197.888 45.632-236.8 22.784-30.464 57.28-46.144 114.368-50.176 0.579 52.577 43.335 94.976 95.995 94.976 0.002 0 0.004 0 0.006 0h64c53.019 0 96-42.981 96-96v0-64c0-53.019-42.981-96-96-96v0h-64c-53.019 0-96 42.981-96 96v0h-264.576c-11.272-19.265-31.861-32-55.426-32-35.346 0-64 28.654-64 64s28.654 64 64 64c23.564 0 44.154-12.735 55.262-31.698l0.164-0.302h109.504c-3.5 3.855-6.959 8.025-10.23 12.345l-0.33 0.455c-42.816 57.152-58.368 146.752-58.368 275.2 0 93.44-15.744 166.208-46.912 214.72-24.96 38.72-60.928 64-113.088 71.168-1.183-52.103-43.7-93.888-95.977-93.888-0.008 0-0.016 0-0.025 0h-63.999c-53.019 0-96 42.981-96 96v0 64zM160 832c-17.673 0-32-14.327-32-32v0-64c0-17.673 14.327-32 32-32v0h64c17.673 0 32 14.327 32 32v0 64c0 17.673-14.327 32-32 32v0h-64zM800 192c-17.673 0-32-14.327-32-32v0-64c0-17.673 14.327-32 32-32v0h64c17.673 0 32 14.327 32 32v0 64c0 17.673-14.327 32-32 32v0h-64z" />
<glyph unicode="&#xe984;" glyph-name="bicycle" data-tags="bicycle" d="M256 672c0 17.673 14.327 32 32 32v0h96c17.673 0 32-14.327 32-32s-14.327-32-32-32v0-32h264.96l24.704 74.112c4.363 12.818 16.29 21.877 30.335 21.888h64.001c17.673 0 32-14.327 32-32s-14.327-32-32-32v0h-40.96l-19.904-59.84 51.648-82.56c21.635 9.171 46.795 14.502 73.201 14.502 106.039 0 192-85.961 192-192s-85.961-192-192-192c-106.039 0-192 85.961-192 192 0 57.026 24.861 108.245 64.336 143.411l0.192 0.168-32.512 51.968-132.864-212.608c-5.749-9.091-15.748-15.040-27.136-15.040 0 0 0 0 0 0h-130.624c-15.877-91.38-94.583-159.983-189.312-159.983-106.039 0-192 85.961-192 192s85.961 192 192 192c26.387 0 51.53-5.323 74.415-14.953l-1.263 0.472 54.784 87.68v54.784h-32c-17.673 0-32 14.327-32 32v0zM352 515.648l-32.512-52.096c32-28.416 54.4-67.456 61.888-111.552h72.896l-102.272 163.648zM512 380.352l102.272 163.648h-204.544l102.272-163.648zM315.968 352c-5.793 21.95-16.625 40.873-31.217 56.179l0.049-0.051-35.072-56.128h66.24zM230.592 442.112c-11.521 3.769-24.78 5.942-38.546 5.942-70.692 0-128-57.308-128-128s57.308-128 128-128c59.301 0 109.184 40.327 123.72 95.053l0.202 0.893h-123.968c0 0 0 0 0 0-17.673 0-32 14.327-32 32 0 6.285 1.812 12.147 4.942 17.091l-0.078-0.131 65.728 105.152zM739.2 408.192c-21.78-22.903-35.178-53.956-35.178-88.137 0-70.692 57.308-128 128-128s128 57.308 128 128c0 70.692-57.308 128-128 128-13.768 0-27.028-2.174-39.455-6.196l0.906 0.253 65.664-105.152c3.052-4.813 4.864-10.675 4.864-16.96 0-17.673-14.327-32-32-32-11.388 0-21.387 5.949-27.058 14.909l-0.078 0.131-65.664 105.088z" />
<glyph unicode="&#xe985;" glyph-name="binoculars" data-tags="binoculars" d="M192 800c0 53.019 42.981 96 96 96v0h64c53.019 0 96-42.981 96-96v0-160h128v160c0 53.019 42.981 96 96 96v0h64c53.019 0 96-42.981 96-96v0-152.448c0-12.446 7.106-23.233 17.483-28.524l0.181-0.084 57.28-28.608c31.709-16.115 53.056-48.494 53.056-85.859 0-0.010 0-0.020 0-0.030v0.001-472.448c0-53.019-42.981-96-96-96v0h-192c-53.019 0-96 42.981-96 96v0 192c0 0.017 0 0.037 0 0.057 0 8.822 3.57 16.811 9.345 22.599l-0.001-0.001 54.656 54.592v50.752c0 17.673-14.327 32-32 32v0h-192c-17.673 0-32-14.327-32-32v0-50.752l54.656-54.592c5.774-5.788 9.344-13.776 9.344-22.599 0-0.020 0-0.040 0-0.060v0.003-192c0-53.019-42.981-96-96-96v0h-192c-53.019 0-96 42.981-96 96v0 472.448c0.001 37.389 21.377 69.785 52.574 85.636l0.546 0.252 57.216 28.608c10.558 5.375 17.664 16.162 17.664 28.608v0 152.448zM288 832c-17.673 0-32-14.327-32-32v0-32h128v32c0 17.673-14.327 32-32 32v0h-64zM384 704h-128v-56.448c-0.001-37.389-21.377-69.785-52.574-85.636l-0.546-0.252-57.216-28.608c-10.558-5.375-17.664-16.162-17.664-28.608v0-376.448h256v82.752l-54.656 54.592c-5.774 5.788-9.344 13.776-9.344 22.599 0 0.020 0 0.040 0 0.060v-0.003 64c0 53.019 42.981 96 96 96v0h192c53.019 0 96-42.981 96-96v0-64c0-0.017 0-0.037 0-0.057 0-8.822-3.57-16.811-9.345-22.599l0.001 0.001-54.656-54.592v-82.752h256v376.448c0 12.446-7.106 23.233-17.483 28.524l-0.181 0.084-57.28 28.608c-31.709 16.115-53.056 48.494-53.056 85.859 0 0.010 0 0.020 0 0.030v-0.001 56.448h-128v-96c0-17.673-14.327-32-32-32v0h-192c-17.673 0-32 14.327-32 32v0 96zM640 768h128v32c0 17.673-14.327 32-32 32v0h-64c-17.673 0-32-14.327-32-32v0-32zM896 64h-256v-32c0-17.673 14.327-32 32-32v0h192c17.673 0 32 14.327 32 32v0 32zM384 64h-256v-32c0-17.673 14.327-32 32-32v0h192c17.673 0 32 14.327 32 32v0 32z" />
<glyph unicode="&#xe986;" glyph-name="binoculars-fill" data-tags="binoculars-fill" d="M288 896c-53.019 0-96-42.981-96-96v0-32h256v32c0 53.019-42.981 96-96 96v0h-64zM448 704v-64h128v64h256v-56.448c0-12.446 7.106-23.233 17.483-28.524l0.181-0.084 57.28-28.608c31.709-16.115 53.056-48.494 53.056-85.859 0-0.010 0-0.020 0-0.030v0.001-376.448h-384v96c0 0.017 0 0.037 0 0.057 0 8.822 3.57 16.811 9.345 22.599l-0.001-0.001 54.656 54.592v50.752c0 17.673-14.327 32-32 32v0h-192c-17.673 0-32-14.327-32-32v0-50.752l54.656-54.592c5.774-5.788 9.344-13.776 9.344-22.599 0-0.020 0-0.040 0-0.060v0.003-96h-384v376.448c0.001 37.389 21.377 69.785 52.574 85.636l0.546 0.252 57.216 28.608c10.558 5.375 17.664 16.162 17.664 28.608v0 56.448h256zM64 64v-32c0-53.019 42.981-96 96-96v0h192c53.019 0 96 42.981 96 96v0 32h-384zM576 64v-32c0-53.019 42.981-96 96-96v0h192c53.019 0 96 42.981 96 96v0 32h-384zM832 768h-256v32c0 53.019 42.981 96 96 96v0h64c53.019 0 96-42.981 96-96v0-32z" />
</font>
</defs>
</svg>
